Subcategories

Waylon Jennings - This Time ; The Ramblin' Man ; Dreaming My Dreams [3LP on 2CD, 2001]

Posted By: plonker
Waylon Jennings - This Time ; The Ramblin' Man ; Dreaming My Dreams [3LP on 2CD, 2001]

Waylon Jennings - This Time ; The Ramblin' Man ; Dreaming My Dreams [3LP on 2CD, 2001]
Country | EAC rip | WavPack: IMG+CUE+EAC/log -> 771 MB | mp3@VBR V0 (245kbps) -> 227 MB
120:44 min | scans 600dpi | RAR inc. 3% recovery | FF & UL | BMG 74321 822372

Waylon Jennings - This Time ; The Ramblin' Man ; Dreaming My Dreams [3LP on 2CD, 2001]

"This Time" (Apr 1974) ; AMG review by Stephen Thomas Erlewine:
This Time appeared just as outlaw hit its stride, thanks in large part to the excellent Honky Tonk Heroes. If this record isn't its equal, it's still pretty wonderful all the same. Part of the record's flaw is its heavy reliance on Willie Nelson – actually, not just on Willie, but on Phases and Stages, which is the source of no less than four of this record's six songs. Granted, these are great songs, and Waylon's versions are hard to fault, but they nevertheless give the record a slightly recycled feeling. Fortunately, these songs are surrounded by excellent material, such as the number one single "This Time." Overall, This Time is fairly muted and deliberate, surprising for an album coming on the heels of the defiant Honky Tonk Heroes. Even the songs that swagger, like Billy Joe Shaver's "Slow Rollin' Low," are laid-back, and the whole thing is fairly reflective (appropriate, if it uses a divorce album as its template). It's not that the monochromaticity makes it a lesser affair than its predecessor, yet the whole thing does feel a bit reserved and not quite as overpowering as a sequel to Honky Tonk Heroes should be. Still, it's a first-rate record – perhaps not a classic, but a subdued, understated album unlike anything in his catalog.
"The Ramblin' Man" (Sep 1974) ; AMG review by Stephen Thomas Erlewine:
If you look at the cover of The Ramblin' Man, you would think that Waylon Jennings had been a ramblin' man, riding the top of the charts, for years, maybe decades. He looks worn out, whether it's on the close-up on the cover, or the back-cover shot of him drunkenly playing solitaire. In truth, it would be another album before he hit the top of the country charts and before outlaw country became hip. Still, this is the record where it all came home. If he had created a sketch of outlaw on Honky Tonk Heroes, he perfected the marketable version of it here, making it a little slicker, a little more commercial, and a whole lot more unstoppable. If the songs aren't the equal of Honky Tonk Heroes or even This Time, The Ramblin' Man has a wilder sound and a greater diversity of songs that make it seem more unruly than its immediate predecessor and more blatantly outlaw. This contains, after all, his first flat-out rock cover, with a good take on the Allman Brothers' "Midnight Rider," plus songs that play into the image of what an outlaw country singer is. There are moments of reflection, yet even those feed into the outlaw picture. Too bad many of the album tracks wind up being agreeable filler instead of knockouts. There aren't any bad cuts, and the entire thing holds together quite well, but it doesn't add up to a moment of transcendence the way Honky Tonk Heroes or its successor would. Still, with "I'm a Ramblin' Man," "Rainy Day Woman," and the heartbreaking "Amanda" on its side, plus highlights like "Oklahoma Sunshine," this is a first-rate Waylon record.
"Dreaming My Dreams" (Jun 1975) ; AMG review by Stephen Thomas Erlewine:
Dreaming My Dreams was Waylon Jennings' first number one record, and deservedly so. He had created outlaw country with Honky Tonk Heroes, and then delivered two further albums that subtly developed its themes, even if they weren't quite as consistent. Dreaming My Dreams maintains the consistency, increasing the country quotient while subtly making it more sentimental than before. This is an unabashedly romantic album, not just in its love songs, but in its tributes to Waylon's heroes. "Are You Sure Hank Done It This Way" opens and "Bob Wills Is Still the King" closes the album – making Jennings an heir apparent to their legacies. Between those two extremes, Waylon appropriates Jimmie Rodgers ("Waymore's Blues"), covers Roger Miller ("I've Been a Long Time Leaving [But I'll Be a Long Time Gone]"), ups the outlaw ante ("Let's All Help the Cowboys [Sing the Blues]"), and writes and records as many sentimental tunes as possible without seeming like a sissy. At times, the emotional undertow may seem a bit much, yet the whole thing adds up as Waylon's best album since Honky Tonk Heroes, and one of the few of his prime outlaw period to deliver from beginning to end.
Release date: Apr 3, 2001

Tracklist:
=disc 1=
This Time:
01 This Time (02:26)
02 Louisiana Women (04:03)
03 Pick Up The Tempo (02:34)
04 Slow Rollin' Low (02:46)
05 Heaven Or Hell (01:40)
06 It's Not Supposed To be That Way (03:28)
07 Slow Movin' Outlaw (03:41)
08 Mona (02:48)
09 Walkin' (02:29)
10 If I Could Touch Her At All (03:03)
The Ramblin' Man:
11 I'm A Ramblin' Man (02:48)
12 Rainy Day Woman (02:32)
13 Cloudy Days (02:42)
14 Midnight Rider (03:24)
15 Oklahoma Sunshine (03:30)
16 The Hunger (03:32)
17 I Can't Keep My Hands Off Of You (03:39)
18 Memories Of You And I (04:16)
19 It'll Be Her (03:04)
20 Amanda (02:55)

=disc 2=
Dreaming My Dreams:
01 Are You Sure Hank Done It This Way (02:56)
02 Waymore's Blues (02:42)
03 I Recall A Gypsy Woman (02:57)
04 High Time (02:43)
05 I've Been A Long Time Leaving (02:44)
06 Let's All Help The Cowboys (03:15)
07 The Door Is Always Open (02:41)
08 Let's Turn Back The Years (02:28)
09 She's Looking Good (02:32)
10 Dreaming My Dreams With You (02:26)
11 Bob Wills Is Still The King (03:34)
bonus tracks:
12 Got A Lot Going For Me (02:33)
13 Last Letter (04:07)
14 One I Sing My Love Song To (02:50)
15 That'll Be The Day (02:25)
16 It Doesn't Matter Anymore (02:56)
17 Lady In The Harbor (03:42)
18 Medley: Well Alright/It's So Easy/Maybe Baby/Peggy Sue (06:07)
19 If You're Goin' Girl (03:44)

Exact Audio Copy V0.99 prebeta 5 from 4. May 2009

EAC extraction logfile from 7. December 2010, 2:25

Waylon Jennings / This Time; The Ramblin' Man; Dreaming My Dreams (CD1)

Used drive : PLEXTOR CD-R PX-W8432T Adapter: 1 ID: 0

Read mode : Secure
Utilize accurate stream : Yes
Defeat audio cache : Yes
Make use of C2 pointers : No

Read offset correction : 355
Overread into Lead-In and Lead-Out : Yes
Fill up missing offset samples with silence : Yes
Delete leading and trailing silent blocks : No
Null samples used in CRC calculations : Yes
Used interface : Installed external ASPI interface

Used output format : Internal WAV Routines
Sample format : 44.100 Hz; 16 Bit; Stereo


TOC of the extracted CD

Track | Start | Length | Start sector | End sector
––––––––––––––––––––––––––––-
1 | 0:00.00 | 2:26.32 | 0 | 10981
2 | 2:26.32 | 4:03.20 | 10982 | 29226
3 | 6:29.52 | 2:33.68 | 29227 | 40769
4 | 9:03.45 | 2:45.40 | 40770 | 53184
5 | 11:49.10 | 1:39.50 | 53185 | 60659
6 | 13:28.60 | 3:28.32 | 60660 | 76291
7 | 16:57.17 | 3:41.30 | 76292 | 92896
8 | 20:38.47 | 2:48.10 | 92897 | 105506
9 | 23:26.57 | 2:28.65 | 105507 | 116671
10 | 25:55.47 | 3:02.60 | 116672 | 130381
11 | 28:58.32 | 2:48.28 | 130382 | 143009
12 | 31:46.60 | 2:31.52 | 143010 | 154386
13 | 34:18.37 | 2:41.65 | 154387 | 166526
14 | 37:00.27 | 3:24.18 | 166527 | 181844
15 | 40:24.45 | 3:29.67 | 181845 | 197586
16 | 43:54.37 | 3:31.40 | 197587 | 213451
17 | 47:26.02 | 3:38.65 | 213452 | 229866
18 | 51:04.67 | 4:16.03 | 229867 | 249069
19 | 55:20.70 | 3:03.42 | 249070 | 262836
20 | 58:24.37 | 2:55.20 | 262837 | 275981


Range status and errors

Selected range

Filename F:\mR\Waylon Jennings - This Time; The Ramblin' Man; Dreaming My Dreams (CD1).wav

Peak level 98.8 %
Range quality 100.0 %
Test CRC 1DD84296
Copy CRC 1DD84296
Copy OK

No errors occurred


AccurateRip summary

Track 1 accurately ripped (confidence 3) [3289203A]
Track 2 accurately ripped (confidence 3) [2C1F2DCB]
Track 3 accurately ripped (confidence 3) [669D5F60]
Track 4 accurately ripped (confidence 3) [06F618C6]
Track 5 accurately ripped (confidence 3) [5E358421]
Track 6 accurately ripped (confidence 3) [2D53A58B]
Track 7 accurately ripped (confidence 3) [A92EF520]
Track 8 accurately ripped (confidence 3) [DA92ACF2]
Track 9 accurately ripped (confidence 3) [4487BAD8]
Track 10 accurately ripped (confidence 3) [3826A347]
Track 11 accurately ripped (confidence 3) [950A73CC]
Track 12 accurately ripped (confidence 3) [C619B581]
Track 13 accurately ripped (confidence 3) [DAA064FA]
Track 14 accurately ripped (confidence 3) [FC29ECC3]
Track 15 accurately ripped (confidence 3) [9D1EE728]
Track 16 accurately ripped (confidence 3) [A226905E]
Track 17 accurately ripped (confidence 3) [811CE2F7]
Track 18 accurately ripped (confidence 3) [07AA77AB]
Track 19 accurately ripped (confidence 3) [1F91CE65]
Track 20 accurately ripped (confidence 3) [5762214E]

All tracks accurately ripped

End of status report

––––––––––––––––––––––––––––-

Exact Audio Copy V0.99 prebeta 5 from 4. May 2009

EAC extraction logfile from 7. December 2010, 13:00

Waylon Jennings / This Time; The Ramblin' Man; Dreaming My Dreams (CD2)

Used drive : PLEXTOR CD-R PX-W8432T Adapter: 1 ID: 0

Read mode : Secure
Utilize accurate stream : Yes
Defeat audio cache : Yes
Make use of C2 pointers : No

Read offset correction : 355
Overread into Lead-In and Lead-Out : Yes
Fill up missing offset samples with silence : Yes
Delete leading and trailing silent blocks : No
Null samples used in CRC calculations : Yes
Used interface : Installed external ASPI interface

Used output format : Internal WAV Routines
Sample format : 44.100 Hz; 16 Bit; Stereo


TOC of the extracted CD

Track | Start | Length | Start sector | End sector
––––––––––––––––––––––––––––-
1 | 0:00.00 | 2:55.65 | 0 | 13189
2 | 2:55.65 | 2:41.55 | 13190 | 25319
3 | 5:37.45 | 2:56.67 | 25320 | 38586
4 | 8:34.37 | 2:42.53 | 38587 | 50789
5 | 11:17.15 | 2:44.00 | 50790 | 63089
6 | 14:01.15 | 3:15.15 | 63090 | 77729
7 | 17:16.30 | 2:41.02 | 77730 | 89806
8 | 19:57.32 | 2:28.18 | 89807 | 100924
9 | 22:25.50 | 2:31.40 | 100925 | 112289
10 | 24:57.15 | 2:26.30 | 112290 | 123269
11 | 27:23.45 | 3:34.22 | 123270 | 139341
12 | 30:57.67 | 2:32.50 | 139342 | 150791
13 | 33:30.42 | 4:07.10 | 150792 | 169326
14 | 37:37.52 | 2:49.43 | 169327 | 182044
15 | 40:27.20 | 2:25.27 | 182045 | 192946
16 | 42:52.47 | 2:56.18 | 192947 | 206164
17 | 45:48.65 | 3:42.30 | 206165 | 222844
18 | 49:31.20 | 6:07.10 | 222845 | 250379
19 | 55:38.30 | 3:44.15 | 250380 | 267194


Range status and errors

Selected range

Filename F:\mR\Waylon Jennings - This Time; The Ramblin' Man; Dreaming My Dreams (CD2).wav

Peak level 97.7 %
Range quality 100.0 %
Test CRC 32531ABE
Copy CRC 32531ABE
Copy OK

No errors occurred


AccurateRip summary

Track 1 accurately ripped (confidence 3) [F2D7DF69]
Track 2 accurately ripped (confidence 3) [C0A3C14E]
Track 3 accurately ripped (confidence 3) [0F9FF71F]
Track 4 accurately ripped (confidence 3) [D39994BE]
Track 5 accurately ripped (confidence 3) [FBE2E87F]
Track 6 accurately ripped (confidence 3) [03D91B1B]
Track 7 accurately ripped (confidence 3) [48A4AEB8]
Track 8 accurately ripped (confidence 3) [935EF3A3]
Track 9 accurately ripped (confidence 3) [4F63EFBA]
Track 10 accurately ripped (confidence 3) [D4B35E54]
Track 11 accurately ripped (confidence 3) [17096B21]
Track 12 accurately ripped (confidence 3) [AF211905]
Track 13 accurately ripped (confidence 3) [21E23490]
Track 14 accurately ripped (confidence 3) [1C5E1AF3]
Track 15 accurately ripped (confidence 3) [9CE7800C]
Track 16 accurately ripped (confidence 3) [1D7E9DFF]
Track 17 accurately ripped (confidence 3) [E2047209]
Track 18 accurately ripped (confidence 3) [525FB768]
Track 19 accurately ripped (confidence 3) [133C57AE]

All tracks accurately ripped

End of status report



************ download ************