Subcategories

Francesco Romano — Sylvius Leopold Weiss: Musica per liuto

Posted By: Ivan78
Francesco Romano — Sylvius Leopold Weiss: Musica per liuto

Francesco Romano — Sylvius Leopold Weiss: Musica per liuto
Baroque | APE, CUE, LOG, Booklet | 302 MB | T.T. 65'02
Amadeus, 2008


Composer: Sylvius Leopold Weiss (1687–1750)
Recorded: 7–9 October 2007, Montevarchi (Arezzo)
Instrument: 13-course baroque lute by Michael Lowe (2004), a copy of Sebastian Schelle

AM 224-2
©2008 PARAGON per Amadeus

Exact Audio Copy V0.99 prebeta 4 from 23. January 2008

EAC extraction logfile from 12. March 2009, 7:49

Francesco Romano / Sylvius Leopold Weiss: Musica per liuto

Used drive : PIONEER DVD-RW DVR-116D Adapter: 0 ID: 1

Read mode : Secure
Utilize accurate stream : Yes
Defeat audio cache : Yes
Make use of C2 pointers : No

Read offset correction : 48
Overread into Lead-In and Lead-Out : No
Fill up missing offset samples with silence : Yes
Delete leading and trailing silent blocks : No
Null samples used in CRC calculations : No
Used interface : Native Win32 interface for Win NT & 2000

Used output format : Monkey's Audio Lossless Encoder
Selected bitrate : High Lossless Compression
Quality : High
Add ID3 tag : No
Command line compressor : C:\Program Files\Monkey's Audio\MAC.exe


TOC of the extracted CD

Track | Start | Length | Start sector | End sector
––––––––––––––––––––––––––––-
1 | 0:00.00 | 1:08.28 | 0 | 5127
2 | 1:08.28 | 4:34.16 | 5128 | 25693
3 | 5:42.44 | 3:07.70 | 25694 | 39788
4 | 8:50.39 | 1:49.43 | 39789 | 48006
5 | 10:40.07 | 2:57.35 | 48007 | 61316
6 | 13:37.42 | 2:41.12 | 61317 | 73403
7 | 16:18.54 | 3:07.15 | 73404 | 87443
8 | 19:25.69 | 1:01.24 | 87444 | 92042
9 | 20:27.18 | 3:49.51 | 92043 | 109268
10 | 24:16.69 | 2:48.13 | 109269 | 121881
11 | 27:05.07 | 2:23.66 | 121882 | 132672
12 | 29:28.73 | 4:58.16 | 132673 | 155038
13 | 34:27.14 | 1:22.50 | 155039 | 161238
14 | 35:49.64 | 2:16.21 | 161239 | 171459
15 | 38:06.10 | 2:52.57 | 171460 | 184416
16 | 40:58.67 | 3:04.65 | 184417 | 198281
17 | 44:03.57 | 3:56.54 | 198282 | 216035
18 | 48:00.36 | 3:42.44 | 216036 | 232729
19 | 51:43.05 | 5:47.22 | 232730 | 258776
20 | 57:30.27 | 3:31.67 | 258777 | 274668
21 | 61:02.19 | 3:58.26 | 274669 | 292544


Range status and errors

Selected range

Filename E:\utorrent\Francesco Romano - Sylvius Leopold Weiss Musica per liuto.wav

Peak level 100.0 %
Range quality 99.9 %
Copy CRC F3174B2E
Copy OK

No errors occurred

End of status report



Tracklist:

Partita n. 6 in re minore (19'24)
01 Fantasia
02 Allemande
03 Courante
04 Gavotte
05 Sarabande
06 Menuet
07 Giga

Sonata n. 12 in la maggiore (21'30)
08 Prélude
09 Allemande
10 Courante
11 Bourrée
12 Sarabande
13 Menuet
14 Ciacona
15 Gigue

Suite n. 14 in la minore (24'01)
16 Allemande. Largo
17 Allegro
18 Bourrée. Posato
19 Sarabande
20 Menuet
21 Giga. Presto


Download
password: www.AvaxHome.ru

Enjoy!