Subcategories

Woody Shaw - Solid (1986) [Remastered 2003]

Posted By: Bezz
Woody Shaw - Solid (1986) [Remastered 2003]

Woody Shaw - Solid (1986) [Remastered 2003]
EAC rip | FLAC+CUE+LOG | Scans | 241 Mb(Incl. Recovery)
Genre ~ Hard Bop, Post-Bop, Trumpet Jazz | Label ~ Savoy Jazz Records

This CD serves as a perfect introduction to the memorable but always underrated trumpeter Woody Shaw, who tragically had only three years left to live. Sticking to jazz standards (including "There Will Never Be Another You," a ten-minute rendition of "It Might as Well Be Spring," and a surprisingly effective up-tempo romp through "The Woody Woodpecker Song"), Shaw is heard in a quartet with pianist Kenny Barron, bassist Neil Swainson, and drummer Victor Jones, leading a quintet on two numbers with the up-and-coming altoist Kenny Garrett, and welcoming guest guitarist Peter Leitch to a sextet rendition of Sonny Rollins' "Solid." A gem. ~ AllMusic
Tracklist

01. There Will Never Be Another You (Gordon-Warren) - 6:59
02. You Stepped Out of a Dream (Brown-Kahn) - 5:32
03. Speak Low (Nash-Weill) - 8:58
04. Solid (Rollins) - 4:41
05. It Might as Well Be Spring (Hammerstein-Rodgers) - 10:06
06. The Woody Woodpecker Song (Idriss-Tibbles) - 3:46

Exact Audio Copy V1.0 beta 1 from 15. November 2010

EAC extraction logfile from 13. July 2011, 19:39

Woody Shaw / Solid (with Kenny Garrett)

Used drive : Optiarc DVD RW AD-7710H Adapter: 1 ID: 0

Read mode : Secure
Utilize accurate stream : Yes
Defeat audio cache : Yes
Make use of C2 pointers : No

Read offset correction : 48
Overread into Lead-In and Lead-Out : No
Fill up missing offset samples with silence : Yes
Delete leading and trailing silent blocks : No
Null samples used in CRC calculations : Yes
Used interface : Native Win32 interface for Win NT & 2000
Gap handling : Appended to previous track

Used output format : User Defined Encoder
Selected bitrate : 896 kBit/s
Quality : High
Add ID3 tag : No
Command line compressor : C:\Program Files\Exact Audio Copy\FLAC\FLAC.EXE
Additional command line options : -8 -V -T "ARTIST=%a" -T "TITLE=%t" -T "ALBUM=%g" -T "DATE=%y" -T "TRACKNUMBER=%n" -T "GENRE=%m" -T "COMMENT=%e" %j–picture="%i"%j %s -o %d

TOC of the extracted CD

Track | Start | Length | Start sector | End sector
––––––––––––––––––––––––––––-
1 | 0:00.00 | 6:59.27 | 0 | 31451
2 | 6:59.27 | 5:32.13 | 31452 | 56364
3 | 12:31.40 | 8:58.55 | 56365 | 96769
4 | 21:30.20 | 4:41.47 | 96770 | 117891
5 | 26:11.67 | 10:06.10 | 117892 | 163351
6 | 36:18.02 | 3:46.13 | 163352 | 180314

Track 1

Filename C:\MY RIPS\01 - There Will Never Be Another You.wav

Pre-gap length 0:00:02.00

Peak level 95.6 %
Extraction speed 1.2 X
Track quality 99.9 %
Test CRC 11FECC95
Copy CRC 11FECC95
Cannot be verified as accurate (confidence 4) [5C6E65AC], AccurateRip returned [D4434274]
Copy OK

Track 2

Filename C:\MY RIPS\02 - You Stepped Out Of A Dream.wav

Pre-gap length 0:00:03.07

Peak level 95.7 %
Extraction speed 1.5 X
Track quality 100.0 %
Test CRC C8A44990
Copy CRC C8A44990
Cannot be verified as accurate (confidence 4) [A4B57A22], AccurateRip returned [CAF68A49]
Copy OK

Track 3

Filename C:\MY RIPS\03 - Speak Low.wav

Pre-gap length 0:00:03.10

Peak level 95.6 %
Extraction speed 1.8 X
Track quality 100.0 %
Test CRC 05375449
Copy CRC 05375449
Cannot be verified as accurate (confidence 4) [E54030E9], AccurateRip returned [8105C85B]
Copy OK

Track 4

Filename C:\MY RIPS\04 - Solid.wav

Pre-gap length 0:00:02.48

Peak level 94.5 %
Extraction speed 1.9 X
Track quality 100.0 %
Test CRC AD9E3444
Copy CRC AD9E3444
Cannot be verified as accurate (confidence 4) [92008E8B], AccurateRip returned [3710165C]
Copy OK

Track 5

Filename C:\MY RIPS\05 - It Might As Well Be Spring.wav

Pre-gap length 0:00:02.42

Peak level 94.9 %
Extraction speed 2.2 X
Track quality 100.0 %
Test CRC 9BC1D36A
Copy CRC 9BC1D36A
Cannot be verified as accurate (confidence 4) [1BE7D35F], AccurateRip returned [5B0474EA]
Copy OK

Track 6

Filename C:\MY RIPS\06 - The Woody Woodpecker Song.wav

Pre-gap length 0:00:03.12

Peak level 94.5 %
Extraction speed 2.1 X
Track quality 100.0 %
Test CRC 0E681811
Copy CRC 0E681811
Cannot be verified as accurate (confidence 4) [8C75FE34], AccurateRip returned [B0972B31]
Copy OK

No tracks could be verified as accurate
You may have a different pressing from the one(s) in the database

No errors occurred

End of status report

==== Log checksum B7BCDDD182AF082DBF8A218422C8CEB44FB6F6FC9DC48129A60AA0CA28639807 ====

Woody Shaw - Solid (1986) [Remastered 2003]

Special thanks to mishka1981 and fiks22!

Welcome to my blog for more wonderful music

PLEASE DO NOT PROVIDE MIRROR LINKS!