Subcategories

Woody Shaw Quintet - Lotus Flower (1982) [Remastered 1990]

Posted By: Bezz
Woody Shaw Quintet - Lotus Flower (1982) [Remastered 1990]

Woody Shaw Quintet - Lotus Flower (1982) [Remastered 1990]
EAC rip | FLAC+CUE+LOG | Scans | 292 Mb(Incl. Recovery)
Genre ~ Hard Bop, Post-Bop, Trumpet Jazz | Label ~ Enja Records

This CD features one of trumpeter Woody Shaw's finest groups, a quintet with trombonist Steve Turre, pianist Mulgrew Miller, bassist Stafford James, and drummer Tony Reedus. The five-song program has an original apiece by each of the musicians (other than Reedus) with two by the leader. Shaw was one of the great trumpeters of all time, as he shows on such advanced yet swinging numbers as "Eastern Joy Dance," "Rahsaan's Run," and "Song of Songs." Virtually every Woody Shaw recording is well worth acquiring, including this one. ~ AllMusic
Tracklist

01. Eastern Joy Dance (9:45)
02. Game (6:46)
03. Lotus Flower (7:01)
04. Rahsan's Run (8:04)
05. Songs of Song (11:21)

Exact Audio Copy V0.99 prebeta 4 from 23. January 2008

EAC extraction logfile from 21. April 2008, 23:43

Woody Shaw Quintet / Lotus Flower

Used drive : TSSTcorpCD/DVDW SH-S182M Adapter: 4 ID: 0

Read mode : Secure
Utilize accurate stream : Yes
Defeat audio cache : Yes
Make use of C2 pointers : No

Read offset correction : 6
Overread into Lead-In and Lead-Out : No
Fill up missing offset samples with silence : Yes
Delete leading and trailing silent blocks : No
Null samples used in CRC calculations : Yes
Used interface : Installed external ASPI interface

Used output format : Internal WAV Routines
Sample format : 44.100 Hz; 16 Bit; Stereo

TOC of the extracted CD

Track | Start | Length | Start sector | End sector
––––––––––––––––––––––––––––-
1 | 0:00.32 | 9:45.00 | 32 | 43906
2 | 9:45.32 | 6:46.00 | 43907 | 74356
3 | 16:31.32 | 7:01.00 | 74357 | 105931
4 | 23:32.32 | 8:04.00 | 105932 | 142231
5 | 31:36.32 | 11:21.25 | 142232 | 193331

Range status and errors

Selected range

Filename F:\Release\Woody Shaw Quintet - Lotus Flower\Woody Shaw Quintet - Lotus Flower.wav

Peak level 100.0 %
Range quality 100.0 %
Test CRC 2FD40540
Copy CRC 2FD40540
Copy OK

No errors occurred

AccurateRip summary

Track 1 not present in database
Track 2 not present in database
Track 3 not present in database
Track 4 not present in database
Track 5 not present in database

None of the tracks are present in the AccurateRip database

End of status report

Woody Shaw Quintet - Lotus Flower (1982) [Remastered 1990]

Woody Shaw Quintet - Lotus Flower (1982) [Remastered 1990]

Special thanks to Гордый and papa1954!

Welcome to my blog for more wonderful music

PLEASE DO NOT PROVIDE MIRROR LINKS!