Subcategories

Yo La Tengo - Extra Painful (2014) {2CD 30th Anniversary Matador OLE 1063-2 rec 1993}

Posted By: ruskaval
Yo La Tengo - Extra Painful (2014) {2CD 30th Anniversary Matador OLE 1063-2 rec 1993}

Yo La Tengo - Extra Painful (2014) {2CD 30th Anniversary Matador OLE 1063-2 rec 1993}
EAC rip (secure mode) | FLAC (tracks)+CUE+LOG -> 565 Mb | MP3 @320 -> 231 Mb
Full Artwork @ 300 dpi (png) -> 129 Mb | 5% repair rar
© 1993, 2014 Matador Records | OLE 1063-2
Rock / Indie Rock

This year (2014) marks Yo La Tengo’s 30th anniversary, and they’re celebrating it by reissuing their sixth album, Painful, released nearly a decade into their career. The cardigan-cozy sound of the record effectively established Yo La Tengo as indie rock’s great romantics, and featured a couple of significant firsts for the trio.

Nineties indie rock was the sound of '80s hardcore kids growing up. And for many get-in-the-van vets, it was a transition that necessitated a clean-slate reboot, whether it was Lou Barlow channeling Dinosaur Jr.’s roar into Sebadoh’s trembling whispers, Jon Spencer reshaping Pussy Galore’s skronk into the Blues Explosion’s funk, or Davids Yow and Sims harnessing Scratch Acid’s strangulated squeals into the Jesus Lizard’s militaristic might. But for Yo La Tengo co-founders/cohabitants Ira Kaplan and Georgia Hubley, the ascent to the Amerindie frontlines was a more gradual, unceremonious process, one that involved downsizing their band from a quartet to a trio, jumping from label to label, and a chronic inability to hold onto a bassist for more than one album at a time. Where they began as a prototypical college-rock outfit in the Velvets-via-Feelies mould (with an unabashed soft spot for '60s-pop covers), Yo La Tengo would go on to define '90s indie—and its evermore sophisticated post-millenial permutations—not by refining their sound, but by blowing it wide open. Painful was the moment of detonation.

Yo La Tengo - Extra Painful (2014) {2CD 30th Anniversary Matador OLE 1063-2 rec 1993}


The importance of Painful to the Yo La Tengo narrative can be gauged as such: This year marks the band’s 30th anniversary, and they’re celebrating it by reissuing their sixth album, released nearly a decade into their career. Painful marked a couple of significant firsts for Yo La Tengo: it was their first album made with eventual long-time producer Roger Moutenot, and their first to be issued through Matador Records, whose post-Pavement popularity (and resultant Atlantic Records parternship) afforded the band their widest distribution yet. And though Painful was actually the second Yo La Tengo album to feature bassist James McNew, it was the first to fully enmesh his sensibilities with Kaplan and Hubley’s, shirking the typical new-guy/third-wheel dynamic for a more polyamorous professional relationship that continues to this day.

As recently as 1992’s May I Sing With Me (McNew’s debut with the band), Yo La Tengo albums tended to slide back and forth between narcotic noise-pop and hushed folky balladry, producing music that was unerringly charming and consistent if not exactly transcendental. But with the introductory organ hum of the prophetically titled "Big Day Coming", Yo La Tengo’s musical universe instantly turned three-dimensional, projecting a vastness their previous records never really approached; by the time they kick into the dizzying tremoloed groove of the following "From a Motel 6", you can already hear their hearts beating as one. Remarkably, Painful thoroughly expanded Yo La Tengo’s sound by emphasizing two basic ingredients: a little shaker here, and a lot of Ace Tone there (a development so notable, it even earns its own celebratory rock-out in "Sudden Organ"). But taken together, they temper the band’s once-scrappy vigor into hypnotic motorik motions and droning reverberations, while casting Hubley’s plainspoken vocals in a dreamy haze, and inspiring Kaplan to drop the bratty insolence of old for a more congenially conversational drawl.

The cardigan-cozy sound of the record effectively established Yo La Tengo as indie rock’s great romantics. Though musical-cum-matrimonial partnerships weren’t exactly a novelty at the time (see: Kim Gordon and Thurston Moore, Neil Hagerty and Jennifer Herrema, Jon Spencer and Cristina Martinez), Kaplan and Hubley were the rare pair to use their songs to openly address matters of the heart. But while Kaplan and Hubley’s exchanges on Painful can resemble scenes from a marriage, it’s not necessarily their own; rather, a hazy-headed ballad like "Nowhere Near" conveys both an intimacy and non-specificity that make it applicable to any long-distance relationship spent waiting for the phone to ring. And the album’s most tender moment—with Kaplan crooning "baby, I’m in love with you" like a lonesome doo-wop singer abandoned by his crew on some moonlit corner—comes through a to-die-for cover of UK power-popsters the Only Ones’ "The Whole of the Law" (yet another sterling example of Yo La Tengo acting out their record collection). Even Painful’s most blown-out moments are infused with an unspeakable tenderness—Yo La Tengo were no strangers to extended, feedback-screeching jams at this point, but never before had they pulled one off that could actually make you weep ("I Heard You Looking").

What makes Painful so eminently approachable after all these years is that it manages to sound like a fully realized, band-defining statement yet unpretentiously off-the-cuff at the same time. It’s a feeling reinforced by the overflow of material available on this reissue, appropriately retitled Extra Painful on account of its enlarged 2xCD girth (not to mention an additional album’s worth of download-only odds and ends even more revelatory than the bonus disc proper). More so than any other band in recent memory, Yo La Tengo’s body of work hinges on the notion that no song is ever a completely finished, end-state product; what we hear on any given album is seemingly a function of what mood they were in the day it was recorded, what the weather was like on the day of mixing, or how much studio time was left before the budget was blown. There is no such thing as a permanent record; songs have many lives before they’re officially documented and continue to evolve long thereafter.

It’s a concept that Yo La Tengo had hinted at before with the two oppositional treatments of "The Evil That Men Do" on 1989’s President Yo La Tengo and the double, duelling dose of "Upside-Down" on the 1992 EP of the same name. Painful continued the conversation with dramatically different versions of Kaplan’s "Big Day Coming"—the gauzy, weightless opener and the penultimate, fuzzed-out chugger—but Extra Painful ups the ante with three more wildly varying live mutations: a laid-back acoustic take sung by Hubley, a revved-up rendition that’s almost twice as fast as the second Painful one, and a mammoth 19-minute distention that fills in the canyon-like divide between Yo La’s soothing/squalling extremes. Likewise, a percussion- and fuzz-free CBGB performance of "Double Dare" foregrounds the pent-up longing that gets washed over by the original’s shoegazey drive, while an Ace Tone-free demo of the same underscores just how important the organ was in achieving it. And it speaks volumes about Painful’s superior quality—and the band’s surging creative energies at the time—that the steely, Stooges-inspired stomper "Shaker" could be earmarked for a non-album single, while the spectacular slow-dissolve ballad "Slow Learner" would be shelved altogether.

From this point on, Yo La Tengo could no longer be described as mere Velvet Underground wannabes (unless, of course, they were playing them in a movie), and within just a few years, you’d be hard-pressed to even call them a rock band anymore. But then, such a free-ranging future seemed almost predestined when, after a decade of playing the rock'n'roll classicist, Kaplan opened up Painful by declaring, "let’s be undecided." As Yo La Tengo’s post-Painful path would prove, indecision has never sounded so assured.
Yo La Tengo - Extra Painful (2014) {2CD 30th Anniversary Matador OLE 1063-2 rec 1993}


tracklist:
CD1 - Painful

01 - Big Day Coming
02 - From A Motel 6
03 - Double Dare
04 - Superstar-Watcher
05 - Nowhere Near
06 - Sudden Organ
07 - A Worrying Thing
08 - I Was The Fool Beside You For Too Long
09 - The Whole Of The Law
10 - Big Day Coming
11 - I Heard You Looking

Yo La Tengo - Extra Painful (2014) {2CD 30th Anniversary Matador OLE 1063-2 rec 1993}


CD2 - Extra Painful
01 - Nowhere Near (Demo)
02 - From A Motel 6 (Live Acoustic)
03 - Tunnel Vision (Unreleased Instrumental Demo)
04 - Sudden Organ (Demo)
05 - Smart Window (Unreleased 'Painful' Session)
06 - Big Day Coming (Live Acoustic)
07 - Slow Learner (Unreleased Demo)
08 - Double Dare (Demo)
09 - A Worrying Thing (Demo)
10 - I Heard You Looking (Live)

Yo La Tengo - Extra Painful (2014) {2CD 30th Anniversary Matador OLE 1063-2 rec 1993}


Exact Audio Copy V1.1 from 23. June 2015

EAC extraction logfile from 29. January 2016, 18:21

Yo La Tengo / Extra Painful - Painful

Used drive : TSSTcorpCDDVDW SH-224DB Adapter: 1 ID: 0

Read mode : Secure
Utilize accurate stream : Yes
Defeat audio cache : Yes
Make use of C2 pointers : No

Read offset correction : 6
Overread into Lead-In and Lead-Out : No
Fill up missing offset samples with silence : Yes
Delete leading and trailing silent blocks : No
Null samples used in CRC calculations : Yes
Used interface : Native Win32 interface for Win NT & 2000
Gap handling : Appended to previous track

Used output format : User Defined Encoder
Selected bitrate : 896 kBit/s
Quality : High
Add ID3 tag : No
Command line compressor : C:\Program Files (x86)\Exact Audio Copy\Flac\flac.exe
Additional command line options : -8 -V -T "ARTIST=%artist%" -T "TITLE=%title%" -T "ALBUM=%albumtitle%" -T "DATE=%year%" -T "TRACKNUMBER=%tracknr%" -T "TOTALTRACKS=%numtracks%" -T "GENRE=%genre%" -T "ALBUMARTIST=%albumartist%" -T "ALBUM ARTIST=%albumartist%" -T "COMMENT=EAC Secure Mode, Test & Copy, AccurateRip, FLAC -8" %source%


TOC of the extracted CD

Track | Start | Length | Start sector | End sector
––––––––––––––––––––––––––––-
1 | 0:00.00 | 7:05.35 | 0 | 31909
2 | 7:05.35 | 4:09.30 | 31910 | 50614
3 | 11:14.65 | 3:28.55 | 50615 | 66269
4 | 14:43.45 | 1:45.12 | 66270 | 74156
5 | 16:28.57 | 6:03.73 | 74157 | 101454
6 | 22:32.55 | 4:46.02 | 101455 | 122906
7 | 27:18.57 | 2:54.20 | 122907 | 135976
8 | 30:13.02 | 5:07.18 | 135977 | 159019
9 | 35:20.20 | 2:20.32 | 159020 | 169551
10 | 37:40.52 | 4:15.53 | 169552 | 188729
11 | 41:56.30 | 7:01.60 | 188730 | 220364


Track 1

Filename E:\Musica\Yo La Tengo\Yo La Tengo - Extra Painful (2014) [FLAC]\CD1 - Painful\01 - Big Day Coming.wav

Pre-gap length 0:00:02.00

Peak level 74.6 %
Extraction speed 4.7 X
Track quality 100.0 %
Test CRC 78E8061E
Copy CRC 78E8061E
Accurately ripped (confidence 51) [33408E95] (AR v2)
Copy OK

Track 2

Filename E:\Musica\Yo La Tengo\Yo La Tengo - Extra Painful (2014) [FLAC]\CD1 - Painful\02 - From A Motel 6.wav

Peak level 100.0 %
Extraction speed 5.0 X
Track quality 100.0 %
Test CRC FAB36C44
Copy CRC FAB36C44
Accurately ripped (confidence 50) [20956A3B] (AR v2)
Copy OK

Track 3

Filename E:\Musica\Yo La Tengo\Yo La Tengo - Extra Painful (2014) [FLAC]\CD1 - Painful\03 - Double Dare.wav

Pre-gap length 0:00:00.25

Peak level 100.0 %
Extraction speed 5.3 X
Track quality 100.0 %
Test CRC 0DDB270B
Copy CRC 0DDB270B
Accurately ripped (confidence 51) [4D8F8252] (AR v2)
Copy OK

Track 4

Filename E:\Musica\Yo La Tengo\Yo La Tengo - Extra Painful (2014) [FLAC]\CD1 - Painful\04 - Superstar-Watcher.wav

Peak level 56.5 %
Extraction speed 4.8 X
Track quality 100.0 %
Test CRC E15DC563
Copy CRC E15DC563
Accurately ripped (confidence 51) [5A8BAE6D] (AR v2)
Copy OK

Track 5

Filename E:\Musica\Yo La Tengo\Yo La Tengo - Extra Painful (2014) [FLAC]\CD1 - Painful\05 - Nowhere Near.wav

Pre-gap length 0:00:02.05

Peak level 99.9 %
Extraction speed 6.2 X
Track quality 100.0 %
Test CRC 58A5CECB
Copy CRC 58A5CECB
Accurately ripped (confidence 50) [7C32A9DA] (AR v2)
Copy OK

Track 6

Filename E:\Musica\Yo La Tengo\Yo La Tengo - Extra Painful (2014) [FLAC]\CD1 - Painful\06 - Sudden Organ.wav

Pre-gap length 0:00:01.68

Peak level 100.0 %
Extraction speed 6.4 X
Track quality 100.0 %
Test CRC B59CB1F7
Copy CRC B59CB1F7
Accurately ripped (confidence 51) [241AF42F] (AR v2)
Copy OK

Track 7

Filename E:\Musica\Yo La Tengo\Yo La Tengo - Extra Painful (2014) [FLAC]\CD1 - Painful\07 - A Worrying Thing.wav

Pre-gap length 0:00:03.35

Peak level 76.2 %
Extraction speed 4.6 X
Track quality 99.9 %
Test CRC 0F09E973
Copy CRC 0F09E973
Accurately ripped (confidence 51) [630B3253] (AR v2)
Copy OK

Track 8

Filename E:\Musica\Yo La Tengo\Yo La Tengo - Extra Painful (2014) [FLAC]\CD1 - Painful\08 - I Was The Fool Beside You For Too Long.wav

Pre-gap length 0:00:00.55

Peak level 99.9 %
Extraction speed 7.0 X
Track quality 100.0 %
Test CRC 303458FA
Copy CRC 303458FA
Accurately ripped (confidence 51) [722BFD28] (AR v2)
Copy OK

Track 9

Filename E:\Musica\Yo La Tengo\Yo La Tengo - Extra Painful (2014) [FLAC]\CD1 - Painful\09 - The Whole Of The Law.wav

Pre-gap length 0:00:02.40

Peak level 45.4 %
Extraction speed 4.4 X
Track quality 99.9 %
Test CRC B83A258C
Copy CRC B83A258C
Accurately ripped (confidence 51) [C0BC68DA] (AR v2)
Copy OK

Track 10

Filename E:\Musica\Yo La Tengo\Yo La Tengo - Extra Painful (2014) [FLAC]\CD1 - Painful\10 - Big Day Coming.wav

Pre-gap length 0:00:00.60

Peak level 100.0 %
Extraction speed 7.2 X
Track quality 100.0 %
Test CRC 1B9CF9AE
Copy CRC 1B9CF9AE
Accurately ripped (confidence 51) [10A045E5] (AR v2)
Copy OK

Track 11

Filename E:\Musica\Yo La Tengo\Yo La Tengo - Extra Painful (2014) [FLAC]\CD1 - Painful\11 - I Heard You Looking.wav

Pre-gap length 0:00:00.38

Peak level 100.0 %
Extraction speed 8.0 X
Track quality 100.0 %
Test CRC 5FCF0FD3
Copy CRC 5FCF0FD3
Accurately ripped (confidence 50) [AFF260BF] (AR v2)
Copy OK


All tracks accurately ripped

No errors occurred

End of status report

–– CUETools DB Plugin V2.1.6

[CTDB TOCID: lHHqCWKPKg_fC.2e8yeVKFnJSGw-] found
Submit result: lHHqCWKPKg_fC.2e8yeVKFnJSGw- has been confirmed
Track | CTDB Status
1 | (67/68) Accurately ripped
2 | (68/68) Accurately ripped
3 | (68/68) Accurately ripped
4 | (68/68) Accurately ripped
5 | (68/68) Accurately ripped
6 | (68/68) Accurately ripped
7 | (68/68) Accurately ripped
8 | (67/68) Accurately ripped
9 | (68/68) Accurately ripped
10 | (68/68) Accurately ripped
11 | (68/68) Accurately ripped


==== Log checksum 3F0E9F4E4B55A1DE232BA9F3608AD3FB28D5B9019AAB1161B824ABCB4D2CC2E6 ====

Exact Audio Copy V1.1 from 23. June 2015

EAC extraction logfile from 29. January 2016, 19:05

Yo La Tengo / Extra Painful - Extra Painful

Used drive : TSSTcorpCDDVDW SH-224DB Adapter: 1 ID: 0

Read mode : Secure
Utilize accurate stream : Yes
Defeat audio cache : Yes
Make use of C2 pointers : No

Read offset correction : 6
Overread into Lead-In and Lead-Out : No
Fill up missing offset samples with silence : Yes
Delete leading and trailing silent blocks : No
Null samples used in CRC calculations : Yes
Used interface : Native Win32 interface for Win NT & 2000
Gap handling : Appended to previous track

Used output format : User Defined Encoder
Selected bitrate : 896 kBit/s
Quality : High
Add ID3 tag : No
Command line compressor : C:\Program Files (x86)\Exact Audio Copy\Flac\flac.exe
Additional command line options : -8 -V -T "ARTIST=%artist%" -T "TITLE=%title%" -T "ALBUM=%albumtitle%" -T "DATE=%year%" -T "TRACKNUMBER=%tracknr%" -T "TOTALTRACKS=%numtracks%" -T "GENRE=%genre%" -T "ALBUMARTIST=%albumartist%" -T "ALBUM ARTIST=%albumartist%" -T "COMMENT=EAC Secure Mode, Test & Copy, AccurateRip, FLAC -8" %source%


TOC of the extracted CD

Track | Start | Length | Start sector | End sector
––––––––––––––––––––––––––––-
1 | 0:00.00 | 7:14.37 | 0 | 32586
2 | 7:14.37 | 3:44.44 | 32587 | 49430
3 | 10:59.06 | 1:43.46 | 49431 | 57201
4 | 12:42.52 | 7:33.52 | 57202 | 91228
5 | 20:16.29 | 3:54.68 | 91229 | 108846
6 | 24:11.22 | 3:10.18 | 108847 | 123114
7 | 27:21.40 | 6:48.27 | 123115 | 153741
8 | 34:09.67 | 3:25.16 | 153742 | 169132
9 | 37:35.08 | 2:57.01 | 169133 | 182408
10 | 40:32.09 | 8:57.72 | 182409 | 222755


Track 1

Filename E:\Musica\Yo La Tengo\Yo La Tengo - Extra Painful (2014) [FLAC]\CD2 - Extra Painful\01 - Nowhere Near (Demo).wav

Pre-gap length 0:00:02.00

Peak level 97.7 %
Extraction speed 2.0 X
Track quality 100.0 %
Test CRC 3B320EE5
Copy CRC 3B320EE5
Accurately ripped (confidence 3) [87D252DF] (AR v2)
Copy OK

Track 2

Filename E:\Musica\Yo La Tengo\Yo La Tengo - Extra Painful (2014) [FLAC]\CD2 - Extra Painful\02 - From A Motel 6 (Live Acoustic).wav

Peak level 99.6 %
Extraction speed 2.1 X
Track quality 100.0 %
Test CRC B4A6F491
Copy CRC B4A6F491
Accurately ripped (confidence 3) [74205987] (AR v2)
Copy OK

Track 3

Filename E:\Musica\Yo La Tengo\Yo La Tengo - Extra Painful (2014) [FLAC]\CD2 - Extra Painful\03 - Tunnel Vision (Unreleased Instrumental Demo).wav

Peak level 97.7 %
Extraction speed 1.8 X
Track quality 100.0 %
Test CRC 639F3B21
Copy CRC 639F3B21
Accurately ripped (confidence 3) [62D48BE8] (AR v2)
Copy OK

Track 4

Filename E:\Musica\Yo La Tengo\Yo La Tengo - Extra Painful (2014) [FLAC]\CD2 - Extra Painful\04 - Sudden Organ (Demo).wav

Peak level 99.0 %
Extraction speed 2.6 X
Track quality 100.0 %
Test CRC DA18E0DC
Copy CRC DA18E0DC
Accurately ripped (confidence 3) [CB996F31] (AR v2)
Copy OK

Track 5

Filename E:\Musica\Yo La Tengo\Yo La Tengo - Extra Painful (2014) [FLAC]\CD2 - Extra Painful\05 - Smart Window (Unreleased 'Painful' Session).wav

Peak level 97.7 %
Extraction speed 2.6 X
Track quality 100.0 %
Test CRC 79BFF261
Copy CRC 79BFF261
Accurately ripped (confidence 3) [77E06DCF] (AR v2)
Copy OK

Track 6

Filename E:\Musica\Yo La Tengo\Yo La Tengo - Extra Painful (2014) [FLAC]\CD2 - Extra Painful\06 - Big Day Coming (Live Acoustic).wav

Peak level 97.7 %
Extraction speed 2.0 X
Track quality 99.9 %
Test CRC 5FE0067F
Copy CRC 5FE0067F
Accurately ripped (confidence 3) [8A63A08B] (AR v2)
Copy OK

Track 7

Filename E:\Musica\Yo La Tengo\Yo La Tengo - Extra Painful (2014) [FLAC]\CD2 - Extra Painful\07 - Slow Learner (Unreleased Demo).wav

Peak level 99.7 %
Extraction speed 2.6 X
Track quality 99.9 %
Test CRC 181801C0
Copy CRC 181801C0
Accurately ripped (confidence 3) [52371875] (AR v2)
Copy OK

Track 8

Filename E:\Musica\Yo La Tengo\Yo La Tengo - Extra Painful (2014) [FLAC]\CD2 - Extra Painful\08 - Double Dare (Demo).wav

Peak level 98.1 %
Extraction speed 2.9 X
Track quality 100.0 %
Test CRC C243D639
Copy CRC C243D639
Accurately ripped (confidence 3) [938571C9] (AR v2)
Copy OK

Track 9

Filename E:\Musica\Yo La Tengo\Yo La Tengo - Extra Painful (2014) [FLAC]\CD2 - Extra Painful\09 - A Worrying Thing (Demo).wav

Peak level 97.7 %
Extraction speed 3.0 X
Track quality 100.0 %
Test CRC B7CCEA4F
Copy CRC B7CCEA4F
Accurately ripped (confidence 3) [29150673] (AR v2)
Copy OK

Track 10

Filename E:\Musica\Yo La Tengo\Yo La Tengo - Extra Painful (2014) [FLAC]\CD2 - Extra Painful\10 - I Heard You Looking (Live).wav

Peak level 98.3 %
Extraction speed 3.5 X
Track quality 100.0 %
Test CRC FC82D573
Copy CRC FC82D573
Accurately ripped (confidence 3) [A46478F8] (AR v2)
Copy OK


All tracks accurately ripped

No errors occurred

End of status report

–– CUETools DB Plugin V2.1.6

[CTDB TOCID: jZ6AhUKjez9L3P_PxakzWYg5eOo-] found
Submit result: jZ6AhUKjez9L3P_PxakzWYg5eOo- has been confirmed
Track | CTDB Status
1 | (26/26) Accurately ripped
2 | (26/26) Accurately ripped
3 | (26/26) Accurately ripped
4 | (26/26) Accurately ripped
5 | (26/26) Accurately ripped
6 | (26/26) Accurately ripped
7 | (26/26) Accurately ripped
8 | (26/26) Accurately ripped
9 | (26/26) Accurately ripped
10 | (26/26) Accurately ripped


==== Log checksum E8FC0E00358FF9682AB0C20159935A7BFCC3B9972BE32CC8D944FC3ED7F0D1C5 ====


Yo La Tengo - Extra Painful (2014) {2CD 30th Anniversary Matador OLE 1063-2 rec 1993}



===