Yo La Tengo - Stuff Like That There (2015) {Matador OLE-1079-2}

Posted By: ruskaval
Yo La Tengo - Stuff Like That There (2015) {Matador OLE-1079-2}

Yo La Tengo - Stuff Like That There (2015) {Matador OLE-1079-2}
EAC rip (secure mode) | FLAC (tracks)+CUE+LOG -> 287 Mb | MP3 @320 -> 107 Mb
Full Artwork @ 300 dpi (png) -> 37 Mb | 5% repair rar
© 2015 Matador Records | OLE 1079-2
Rock / Indie Rock / Alternative / Dream Pop

These days, every band seems eager to honor the anniversary of one of its landmark albums, usually in the form of a concert tour or an expanded reissue, and even Yo La Tengo have gotten into the act – a quarter century after they released their endlessly charming 1990 LP Fakebook, in which they covered a handful of their favorite songs and reworked a few of their own numbers in semi-acoustic fashion, YLT have recorded what amounts to a sequel, 2015's Stuff Like That There. Just like a sequel to a 1980s horror movie, Stuff Like That There follows the template of the original as closely as possible – there are two new songs, three remakes from the YLT back catalog, and nine covers, which range from the instantly recognizable (Hank Williams' "I'm So Lonesome I Could Cry," inspired by Al Green's version) to the thoroughly obscure (unless you're a Hoboken pop obsessive or a James McNew completist, "Automatic Doom" by the Special Pillows is probably not on your hit parade).

Just as importantly, original Yo La Tengo guitarist Dave Schramm, who appeared on Fakebook, returned for the Stuff Like That There sessions, and while his style would have been a poor fit beside Ira Kaplan's clouds of six-string skronk that became a highlight of YLT's work from President Yo La Tengo onward, for stuff like this, Schramm's graceful sound, full of echo and clean single-note leads, meshes gloriously with Kaplan's implacable strum and the steady shuffle of bassist James McNew and drummer and vocalist Georgia Hubley. As "quiet" Yo La Tengo goes, like Fakebook this is top shelf, beautiful, and subtly joyous, and while the songs are well chosen and the performances are warm and passionate despite the low decibel level, the real secret weapon here is Georgia Hubley's vocals. Like Maureen Tucker singing "After Hours," what Hubley lacks in range she more than makes up for in her ability to infuse a song with feeling, and from the heartache of "My Heart's Not in It" and the lover's kiss-off of "Butchie's Tune" to the sweetly fractured romanticism of "Friday I'm in Love," Hubley's work beautifully demonstrates how much more less can be. If Stuff Like That There isn't as revelatory as Fakebook, it's a splendid, beguiling album that's perfectly suited for late nights and rainy afternoons, and a welcome reminder of one of the many, many things Yo La Tengo do so well.

Tracklist:

01 - My Hearts Not In It
02 - Rickety
03 - Im So Lonely I Could Cry
04 - All Your Secrets
05 - The Ballad Of Red Buckets
06 - Friday Im In Love
07 - Before We Stopped To Think
08 - Butchies Tune
09 - Automatic Doom
10 - Awhileaway
11 - I Can Feel The Ice Melting
12 - Naples
13 - Deeper Into The Movies
14 - Somebodys In Love

Exact Audio Copy V1.1 from 23. June 2015

EAC extraction logfile from 23. December 2015, 19:50

Yo La Tengo / Stuff Like That There

Used drive : TSSTcorpCDDVDW SH-224DB Adapter: 1 ID: 0

Read mode : Secure
Utilize accurate stream : Yes
Defeat audio cache : Yes
Make use of C2 pointers : No

Read offset correction : 6
Overread into Lead-In and Lead-Out : No
Fill up missing offset samples with silence : Yes
Delete leading and trailing silent blocks : No
Null samples used in CRC calculations : Yes
Used interface : Native Win32 interface for Win NT & 2000
Gap handling : Appended to previous track

Used output format : User Defined Encoder
Selected bitrate : 896 kBit/s
Quality : High
Add ID3 tag : No
Command line compressor : C:\Program Files (x86)\Exact Audio Copy\Flac\flac.exe
Additional command line options : -8 -V -T "ARTIST=%artist%" -T "TITLE=%title%" -T "ALBUM=%albumtitle%" -T "DATE=%year%" -T "TRACKNUMBER=%tracknr%" -T "TOTALTRACKS=%numtracks%" -T "GENRE=%genre%" -T "ALBUMARTIST=%albumartist%" -T "ALBUM ARTIST=%albumartist%" -T "COMMENT=EAC Secure Mode, Test & Copy, AccurateRip, FLAC -8" %source%


TOC of the extracted CD

Track | Start | Length | Start sector | End sector
––––––––––––––––––––––––––––-
1 | 0:00.00 | 2:48.01 | 0 | 12600
2 | 2:48.01 | 3:46.53 | 12601 | 29603
3 | 6:34.54 | 2:51.51 | 29604 | 42479
4 | 9:26.30 | 3:18.10 | 42480 | 57339
5 | 12:44.40 | 4:49.35 | 57340 | 79049
6 | 17:34.00 | 3:11.25 | 79050 | 93399
7 | 20:45.25 | 2:59.37 | 93400 | 106861
8 | 23:44.62 | 2:46.70 | 106862 | 119381
9 | 26:31.57 | 2:37.21 | 119382 | 131177
10 | 29:09.03 | 4:03.32 | 131178 | 149434
11 | 33:12.35 | 2:35.68 | 149435 | 161127
12 | 35:48.28 | 2:44.60 | 161128 | 173487
13 | 38:33.13 | 5:09.29 | 173488 | 196691
14 | 43:42.42 | 2:05.55 | 196692 | 206121


Track 1

Filename E:\Musica\Yo La Tengo\Yo La Tengo - Stuff Like That There (2015) [FLAC]\01 - My Hearts Not In It.wav

Pre-gap length 0:00:02.00

Peak level 95.9 %
Extraction speed 1.6 X
Track quality 100.0 %
Test CRC E23E773F
Copy CRC E23E773F
Accurately ripped (confidence 28) [1040B195] (AR v2)
Copy OK

Track 2

Filename E:\Musica\Yo La Tengo\Yo La Tengo - Stuff Like That There (2015) [FLAC]\02 - Rickety.wav

Peak level 96.8 %
Extraction speed 1.6 X
Track quality 99.9 %
Test CRC F2E65167
Copy CRC F2E65167
Accurately ripped (confidence 28) [837C8C89] (AR v2)
Copy OK

Track 3

Filename E:\Musica\Yo La Tengo\Yo La Tengo - Stuff Like That There (2015) [FLAC]\03 - Im So Lonely I Could Cry.wav

Peak level 95.9 %
Extraction speed 1.9 X
Track quality 100.0 %
Test CRC D296839C
Copy CRC D296839C
Accurately ripped (confidence 27) [665D70AF] (AR v2)
Copy OK

Track 4

Filename E:\Musica\Yo La Tengo\Yo La Tengo - Stuff Like That There (2015) [FLAC]\04 - All Your Secrets.wav

Peak level 100.0 %
Extraction speed 2.1 X
Track quality 100.0 %
Test CRC 40AB529A
Copy CRC 40AB529A
Accurately ripped (confidence 28) [4659A818] (AR v2)
Copy OK

Track 5

Filename E:\Musica\Yo La Tengo\Yo La Tengo - Stuff Like That There (2015) [FLAC]\05 - The Ballad Of Red Buckets.wav

Pre-gap length 0:00:01.57

Peak level 96.4 %
Extraction speed 2.0 X
Track quality 99.9 %
Test CRC 52711BB6
Copy CRC 52711BB6
Accurately ripped (confidence 27) [A5842B36] (AR v2)
Copy OK

Track 6

Filename E:\Musica\Yo La Tengo\Yo La Tengo - Stuff Like That There (2015) [FLAC]\06 - Friday Im In Love.wav

Pre-gap length 0:00:01.30

Peak level 97.6 %
Extraction speed 2.4 X
Track quality 100.0 %
Test CRC 472981DA
Copy CRC 472981DA
Accurately ripped (confidence 27) [FD4CC1BF] (AR v2)
Copy OK

Track 7

Filename E:\Musica\Yo La Tengo\Yo La Tengo - Stuff Like That There (2015) [FLAC]\07 - Before We Stopped To Think.wav

Peak level 96.1 %
Extraction speed 2.4 X
Track quality 100.0 %
Test CRC 23910A8F
Copy CRC 23910A8F
Accurately ripped (confidence 27) [23AF1748] (AR v2)
Copy OK

Track 8

Filename E:\Musica\Yo La Tengo\Yo La Tengo - Stuff Like That There (2015) [FLAC]\08 - Butchies Tune.wav

Peak level 97.0 %
Extraction speed 2.5 X
Track quality 100.0 %
Test CRC 17912F6A
Copy CRC 17912F6A
Accurately ripped (confidence 27) [231F7B13] (AR v2)
Copy OK

Track 9

Filename E:\Musica\Yo La Tengo\Yo La Tengo - Stuff Like That There (2015) [FLAC]\09 - Automatic Doom.wav

Peak level 96.4 %
Extraction speed 2.5 X
Track quality 100.0 %
Test CRC B7F6BA74
Copy CRC B7F6BA74
Accurately ripped (confidence 27) [9A79437F] (AR v2)
Copy OK

Track 10

Filename E:\Musica\Yo La Tengo\Yo La Tengo - Stuff Like That There (2015) [FLAC]\10 - Awhileaway.wav

Peak level 95.9 %
Extraction speed 2.8 X
Track quality 100.0 %
Test CRC 9AB74813
Copy CRC 9AB74813
Accurately ripped (confidence 27) [8110C3C5] (AR v2)
Copy OK

Track 11

Filename E:\Musica\Yo La Tengo\Yo La Tengo - Stuff Like That There (2015) [FLAC]\11 - I Can Feel The Ice Melting.wav

Peak level 95.9 %
Extraction speed 2.7 X
Track quality 100.0 %
Test CRC A65ECF32
Copy CRC A65ECF32
Accurately ripped (confidence 27) [C855EBCC] (AR v2)
Copy OK

Track 12

Filename E:\Musica\Yo La Tengo\Yo La Tengo - Stuff Like That There (2015) [FLAC]\12 - Naples.wav

Peak level 95.6 %
Extraction speed 2.8 X
Track quality 100.0 %
Test CRC 13558D3B
Copy CRC 13558D3B
Accurately ripped (confidence 27) [7D56D31C] (AR v2)
Copy OK

Track 13

Filename E:\Musica\Yo La Tengo\Yo La Tengo - Stuff Like That There (2015) [FLAC]\13 - Deeper Into The Movies.wav

Peak level 96.6 %
Extraction speed 2.7 X
Track quality 99.9 %
Test CRC 04F69245
Copy CRC 04F69245
Accurately ripped (confidence 27) [938E0E0D] (AR v2)
Copy OK

Track 14

Filename E:\Musica\Yo La Tengo\Yo La Tengo - Stuff Like That There (2015) [FLAC]\14 - Somebodys In Love.wav

Pre-gap length 0:00:01.40

Peak level 96.5 %
Extraction speed 2.8 X
Track quality 100.0 %
Test CRC 19FF12A3
Copy CRC 19FF12A3
Accurately ripped (confidence 27) [8A5BC3AE] (AR v2)
Copy OK


All tracks accurately ripped

No errors occurred

End of status report

–– CUETools DB Plugin V2.1.6

[CTDB TOCID: QyAEbHX30CpT84v_usNHCzD7Vpw-] found
Submit result: QyAEbHX30CpT84v_usNHCzD7Vpw- has been confirmed
Track | CTDB Status
1 | (64/64) Accurately ripped
2 | (64/64) Accurately ripped
3 | (64/64) Accurately ripped
4 | (64/64) Accurately ripped
5 | (64/64) Accurately ripped
6 | (64/64) Accurately ripped
7 | (64/64) Accurately ripped
8 | (64/64) Accurately ripped
9 | (64/64) Accurately ripped
10 | (64/64) Accurately ripped
11 | (64/64) Accurately ripped
12 | (64/64) Accurately ripped
13 | (64/64) Accurately ripped
14 | (64/64) Accurately ripped


==== Log checksum 38D175BB6B8B47263727735B0A916B3021901BAB40947A25D45F1B740629D8BA ====


Yo La Tengo - Stuff Like That There (2015) {Matador OLE-1079-2}

Yo La Tengo - Stuff Like That There (2015) {Matador OLE-1079-2}


see more Yo La Tengo…


===