Диалог - Антология 1982-83 (2004)

Posted By: technick
Диалог - Антология 1982-83 (2004)

Диалог - Антология 1982-83 (2004) (1982)
EAC: ape (image)+cue+log | RAR, 3%, 533,62MB | mp3 320kbps | RAR, 3%, 175,79MB | Scans | RAR, 3%, 23,86MB
Label: Монолит | Cat №: МТ 702909-392-1 | (FileSonic)

На этом диске записаны произведения, которые были основой концертной программы группы в 1982-1983 годах.
Сюита "Я - человек" обозначила основное музыкальное направление, в котором "Диалог" развивался вплоть до начала 90-х - арт-рок. Песни "Квадратный человек" и "Все летают" были особенно любимы аудиторией.
Все записи сделаны без использования многоканальной технологии.
Аннотация к диску.
Exact Audio Copy V0.99 prebeta 3 from 28. July 2007

EAC extraction logfile from 9. August 2008, 11:37

Диалог / Квадратный Человек

Used drive : TSSTcorpCD/DVDW SH-W162L Adapter: 1 ID: 1

Read mode : Secure
Utilize accurate stream : Yes
Defeat audio cache : Yes
Make use of C2 pointers : No

Read offset correction : 6
Overread into Lead-In and Lead-Out : No
Fill up missing offset samples with silence : Yes
Delete leading and trailing silent blocks : No
Null samples used in CRC calculations : Yes
Used interface : Installed external ASPI interface

Used output format : Internal WAV Routines
Sample format : 44.100 Hz; 16 Bit; Stereo


TOC of the extracted CD

Track | Start | Length | Start sector | End sector
––––––––––––––––––––––––––––-
1 | 0:00.00 | 4:42.24 | 0 | 21173
2 | 4:42.24 | 5:21.39 | 21174 | 45287
3 | 10:03.63 | 4:18.59 | 45288 | 64696
4 | 14:22.47 | 6:50.48 | 64697 | 95494
5 | 21:13.20 | 5:21.62 | 95495 | 119631
6 | 26:35.07 | 3:21.57 | 119632 | 134763
7 | 29:56.64 | 2:05.02 | 134764 | 144140
8 | 32:01.66 | 4:40.47 | 144141 | 165187
9 | 36:42.38 | 6:19.28 | 165188 | 193640
10 | 43:01.66 | 3:37.29 | 193641 | 209944
11 | 46:39.20 | 3:22.35 | 209945 | 225129
12 | 50:01.55 | 2:19.18 | 225130 | 235572
13 | 52:20.73 | 5:58.05 | 235573 | 262427
14 | 58:19.03 | 3:20.26 | 262428 | 277453
15 | 61:39.29 | 3:24.45 | 277454 | 292798
16 | 65:03.74 | 5:06.68 | 292799 | 315816
17 | 70:10.67 | 4:47.25 | 315817 | 337366


Range status and errors

Selected range

Filename C:\Диалог - Антология 1982-83\Диалог - Антология 1982-83.wav

Peak level 99.5 %
Range quality 100.0 %
Copy CRC 0ED74986
Copy OK

No errors occurred


AccurateRip summary

Track 1 not present in database
Track 2 not present in database
Track 3 not present in database
Track 4 not present in database
Track 5 not present in database
Track 6 not present in database
Track 7 not present in database
Track 8 not present in database
Track 9 not present in database
Track 10 not present in database
Track 11 not present in database
Track 12 not present in database
Track 13 not present in database
Track 14 not present in database
Track 15 not present in database
Track 16 not present in database
Track 17 not present in database

None of the tracks are present in the AccurateRip database

End of status report

Tracklist:
01. Intro (Сюита "Я — человек") [04:42]
02. Part_1 (Сюита "Я — человек") [05:21]
03. Part_2 (Сюита "Я — человек") [04:18]
04. Part_3 (Сюита "Я — человек") [06:50]
05. Part_4 (Сюита "Я — человек") [05:21]
06. Part_5 (Сюита "Я — человек") [03:21]
07. Part_6 (Сюита "Я — человек") [02:05]
08. Part_7 (Сюита "Я — человек") [04:40]
09. Epiloque (Сюита "Я — человек") [06:19]
10. Назидание [03:37]
11. Пропавший день [03:22]
12. Квадратный человек [02:19]
13. Эвридика [05:58]
14. Фея [03:20]
15. Космический сон [03:24]
16. Все летают [05:06]
17. Сверчок [04:47]
––––––––
Total Time: [75:00]
No mirrors, please!
Not my rip! All Thanks to original ripper!

Welcome to My Blog!

FileSonic: Part1, Part2, mp3, scans.
pass: kermith