London Twilight Orchestra - TV Themes (1996)

Posted By: Speedyclick
London Twilight Orchestra - TV Themes (1996)

London Twilight Orchestra - TV Themes (1996)
EAC Rip | FLAC (image & cue & log) | tracks: 14 | ~ 302 Mb | 45:17 | Scans
Label: BMG | 5% recovery record | Genre: Instrumental, tv themes

Remember again old popular TV series through their musical themes. "Miami Vice", "Dallas", "Dynasty", "Mistral's Daughter" and many other series we all loved, will deploy before your mind eyes, as you will listen to the rich, melodic or rhythmic sound of the London Twilight Orchestra. Memories are made of this.

TRACKLIST
01. THORN BIRDS - Love Theme
02. MISTRAL'S DAUGHTER - Only Love
03. TWIN PEAKS - Falling
04. MIKE HAMMER - Harlem Nocturne
05. MAGNUM P.A. - Main Theme
06. FALCON CREST - Main Theme
07. L.A. LAW - Main Theme
08. MIAMI VICE - Main Theme
09. HILL STREET BLUES - Main Theme
10. DALLAS - Main Theme
11. MATADOR - Main Theme
12. DYNASTY - Main Theme
13. THE COSBY SHOW - Main Theme
14. BONANZA - Main Theme

Exact Audio Copy V0.99 prebeta 5 from 4. May 2009

EAC extraction logfile from 7. March 2011, 12:00

London Twilight Orchestra / TV Themes

Used drive : HL-DT-STDVDRAM GH10N Adapter: 1 ID: 0

Read mode : Secure
Utilize accurate stream : Yes
Defeat audio cache : Yes
Make use of C2 pointers : No

Read offset correction : 667
Overread into Lead-In and Lead-Out : No
Fill up missing offset samples with silence : Yes
Delete leading and trailing silent blocks : No
Null samples used in CRC calculations : Yes
Used interface : Native Win32 interface for Win NT & 2000

Used output format : User Defined Encoder
Selected bitrate : 896 kBit/s
Quality : High
Add ID3 tag : No
Command line compressor : C:\Program Files\FLAC\flac.exe
Additional command line options : -V -5 -T "artist=%a" -T "title=%t" -T "album=%g" -T "date=%y" -T "tracknumber=%n" -T "genre=%m" -5 %s


TOC of the extracted CD

Track | Start | Length | Start sector | End sector
––––––––––––––––––––––––––––-
1 | 0:00.00 | 3:07.00 | 0 | 14024
2 | 3:07.00 | 4:24.00 | 14025 | 33824
3 | 7:31.00 | 4:30.00 | 33825 | 54074
4 | 12:01.00 | 3:29.00 | 54075 | 69749
5 | 15:30.00 | 3:11.00 | 69750 | 84074
6 | 18:41.00 | 2:46.00 | 84075 | 96524
7 | 21:27.00 | 2:40.00 | 96525 | 108524
8 | 24:07.00 | 2:32.00 | 108525 | 119924
9 | 26:39.00 | 3:14.37 | 119925 | 134511
10 | 29:53.37 | 3:06.38 | 134512 | 148499
11 | 33:00.00 | 2:59.00 | 148500 | 161924
12 | 35:59.00 | 3:27.00 | 161925 | 177449
13 | 39:26.00 | 3:29.37 | 177450 | 193161
14 | 42:55.37 | 2:21.38 | 193162 | 203774


Range status and errors

Selected range

Filename S:\EAC Rips\The London Twilight Orchestra - TV Themes\London Twilight Orchestra - TV Themes.wav

Peak level 100.0 %
Range quality 100.0 %
Test CRC 58722507
Copy CRC 58722507
Copy OK

No errors occurred


AccurateRip summary

Track 1 not present in database
Track 2 not present in database
Track 3 not present in database
Track 4 not present in database
Track 5 not present in database
Track 6 not present in database
Track 7 not present in database
Track 8 not present in database
Track 9 not present in database
Track 10 not present in database
Track 11 not present in database
Track 12 not present in database
Track 13 not present in database
Track 14 not present in database

None of the tracks are present in the AccurateRip database

End of status report