Subcategories

Megumi Nakajima - J-POP Music Video Compilation (2012)

Posted By: Lebedev30
Megumi Nakajima  - J-POP Music Video Compilation (2012)

Megumi Nakajima - Marble (2012)
DVD5 | NTSC | 16:9 (720x480) | PCM 2.0 1536 kbps | ~ 397.2 Mb
J-POP | DVD region: 2 | 00:06:12


DVD Content:



01. マーブル



ID : 224 (0xE0)
Format : MPEG Video
Format version : Version 2
Format profile : Main@Main
Format settings : CustomMatrix / BVOP
Format settings, BVOP : Yes
Format settings, Matrix : Custom
Format settings, GOP : Variable
Format settings, picture structure : Frame
Duration : 20 s 20 ms
Bit rate mode : Variable
Bit rate : 161 Mb/s
Maximum bit rate : 9 800 kb/s
Width : 720 pixels
Height : 480 pixels
Display aspect ratio : 16:9
Frame rate : 29.970 (30000/1001) FPS
Standard : NTSC
Color space : YUV
Chroma subsampling : 4:2:0
Bit depth : 8 bits
Scan type : Interlaced
Scan order : Top Field First
Compression mode : Lossy
Bits/(Pixel*Frame) : 15.502
Time code of first frame : 00:59:59:00
Time code source : Group of pictures header
Stream size : 383 MiB (97%)

Audio
ID : 189 (0xBD)-160 (0xA0)
Format : PCM
Format settings : Big / Signed
Muxing mode : DVD-Video
Duration : 19 s 985 ms
Bit rate mode : Constant
Bit rate : 1 536 kb/s
Channel(s) : 2 channels
Sampling rate : 48.0 kHz
Bit depth : 16 bits
Stream size : 3.66 MiB (1%)



Megumi Nakajima  - J-POP Music Video Compilation (2012)

Megumi Nakajima  - J-POP Music Video Compilation (2012)

Megumi Nakajima  - J-POP Music Video Compilation (2012)



Megumi Nakajima  - J-POP Music Video Compilation (2012)

Megumi Nakajima - TRY UNITE! (2012)
DVD5 | NTSC | 16:9 (720x480) | PCM 2.0 1536 kbps | ~ 302 Mb
J-POP | DVD region: 2 | 00:04:57


DVD Content:



01. TRY UNITE!



ID : 224 (0xE0)
Format : MPEG Video
Format version : Version 2
Format profile : Main@Main
Format settings : CustomMatrix / BVOP
Format settings, BVOP : Yes
Format settings, Matrix : Custom
Format settings, GOP : Variable
Format settings, picture structure : Frame
Duration : 20 s 20 ms
Bit rate mode : Variable
Bit rate : 121 Mb/s
Maximum bit rate : 9 800 kb/s
Width : 720 pixels
Height : 480 pixels
Display aspect ratio : 16:9
Frame rate : 29.970 (30000/1001) FPS
Standard : NTSC
Color space : YUV
Chroma subsampling : 4:2:0
Bit depth : 8 bits
Scan type : Interlaced
Scan order : Top Field First
Compression mode : Lossy
Bits/(Pixel*Frame) : 11.724
Time code of first frame : 00:59:59:00
Time code source : Group of pictures header
Stream size : 290 MiB (97%)

Audio
ID : 189 (0xBD)-160 (0xA0)
Format : PCM
Format settings : Big / Signed
Muxing mode : DVD-Video
Duration : 19 s 985 ms
Bit rate mode : Constant
Bit rate : 1 536 kb/s
Channel(s) : 2 channels
Sampling rate : 48.0 kHz
Bit depth : 16 bits
Stream size : 3.66 MiB (1%)



Megumi Nakajima  - J-POP Music Video Compilation (2012)

Megumi Nakajima  - J-POP Music Video Compilation (2012)

Megumi Nakajima  - J-POP Music Video Compilation (2012)