Tags
Language
Tags

Eddie Daniels... - One More: The Summary - Music Of Thad Jones, Vol 2 (2006) {IPO Recordings)

Posted By:
Eddie Daniels... - One More: The Summary - Music Of Thad Jones, Vol 2 (2006) {IPO Recordings)

Eddie Daniels, Richard Davis, Benny Golson, Hank Jones, James Moody, John Mosca, Jimmy Owens, Kenny Washington, Frank Wess - One More: The Summary - Music Of Thad Jones, Vol 2 (2006) {IPO Recordings)
EAC Rip | FLAC with CUE and LOG | scans | 369 mb
MP3 CBR 320 kbps | RAR | 187 mb
Genre: jazz

One More: The Summary - Music Of Thad Jones, Vol 2 is a 2006 collaborative album between Eddie Daniels, Richard Davis, Benny Golson, Hank Jones, James Moody, John Mosca, Jimmy Owens, Kenny Washington and Frank Wess. This was released by IPO Recordings.

Eddie Daniels... - One More: The Summary - Music Of Thad Jones, Vol 2 (2006) {IPO Recordings)

01. Little Pixie (5:42)
02. Let's (6:20)
03. Don't Ever Leave Me (5:13)
04. Groove Merchant (6:44)
05. Birdsong (7:12)
06. The Great One (11:25)
07. Central Park North (Interlude) (5:10)
08. Rejoice (6:59)
09. Three And One (7:21)
10. The Summary (5:23)

Eddie Daniels-clarinet, tenor saxophone
Richard Davis-bass
Benny Golson-tenor saxophone
Hank Jones-piano
James Moody-tenor saxphone
John Mosca-trombone
Jimmy Owens-trumpet, flugelhorn
Kenny Washington-drums
Frank Wess-tenor saxophone, flute

Produced by Michael Patterson
Associate producer: Bill Kirchner
Recorded & engineered by Rick Jacobson
Mixed & mastered by Tim Martyn

Exact Audio Copy V1.0 beta 6 from 9. April 2015

EAC extraction logfile from 2. June 2020, 13:45

Eddie Daniels / One More: The Summary - Music Of Thad Jones, Vol 2

Used drive : TSSTcorpDVD+-RW TS-L633C Adapter: 1 ID: 0

Read mode : Secure
Utilize accurate stream : Yes
Defeat audio cache : Yes
Make use of C2 pointers : No

Read offset correction : 6
Overread into Lead-In and Lead-Out : No
Fill up missing offset samples with silence : Yes
Delete leading and trailing silent blocks : No
Null samples used in CRC calculations : Yes
Used interface : Native Win32 interface for Win NT & 2000
Gap handling : Appended to previous track

Used output format : Internal WAV Routines
Sample format : 44.100 Hz; 16 Bit; Stereo


TOC of the extracted CD

Track | Start | Length | Start sector | End sector
––––––––––––––––––––––––––––-
1 | 0:00.00 | 5:42.67 | 0 | 25716
2 | 5:42.67 | 6:20.47 | 25717 | 54263
3 | 12:03.39 | 5:13.23 | 54264 | 77761
4 | 17:16.62 | 6:44.70 | 77762 | 108131
5 | 24:01.57 | 7:12.35 | 108132 | 140566
6 | 31:14.17 | 11:25.08 | 140567 | 191949
7 | 42:39.25 | 5:09.63 | 191950 | 215187
8 | 47:49.13 | 6:58.50 | 215188 | 246587
9 | 54:47.63 | 7:21.65 | 246588 | 279727
10 | 62:09.53 | 5:23.10 | 279728 | 303962


Track 1

Filename C:\My Documents\My FLAC\Eddie Daniels… - One More The Summary, Music Of Thad Jones, Vol 2 (2006) [FLAC] {IPO Recordings}\01 - Little Pixie.wav

Pre-gap length 0:00:02.00

Peak level 99.7 %
Extraction speed 0.9 X
Track quality 100.0 %
Test CRC 9FA06FFE
Copy CRC 9FA06FFE
Accurately ripped (confidence 1) [6817AC63] (AR v2)
Copy OK

Track 2

Filename C:\My Documents\My FLAC\Eddie Daniels… - One More The Summary, Music Of Thad Jones, Vol 2 (2006) [FLAC] {IPO Recordings}\02 - Let's.wav

Peak level 99.7 %
Extraction speed 1.3 X
Track quality 100.0 %
Test CRC 79AE2974
Copy CRC 79AE2974
Accurately ripped (confidence 1) [0EE7DBD0] (AR v2)
Copy OK

Track 3

Filename C:\My Documents\My FLAC\Eddie Daniels… - One More The Summary, Music Of Thad Jones, Vol 2 (2006) [FLAC] {IPO Recordings}\03 - Don't Ever Leave Me.wav

Peak level 99.7 %
Extraction speed 1.5 X
Track quality 100.0 %
Test CRC 588FD24B
Copy CRC 588FD24B
Accurately ripped (confidence 1) [BC5E46A5] (AR v2)
Copy OK

Track 4

Filename C:\My Documents\My FLAC\Eddie Daniels… - One More The Summary, Music Of Thad Jones, Vol 2 (2006) [FLAC] {IPO Recordings}\04 - Groove Merchant.wav

Peak level 99.7 %
Extraction speed 1.6 X
Track quality 100.0 %
Test CRC FABF252A
Copy CRC FABF252A
Accurately ripped (confidence 1) [D1A7A3DC] (AR v2)
Copy OK

Track 5

Filename C:\My Documents\My FLAC\Eddie Daniels… - One More The Summary, Music Of Thad Jones, Vol 2 (2006) [FLAC] {IPO Recordings}\05 - Birdsong.wav

Peak level 89.7 %
Extraction speed 1.8 X
Track quality 100.0 %
Test CRC 0F9A0C0A
Copy CRC 0F9A0C0A
Accurately ripped (confidence 1) [EF10BF8D] (AR v2)
Copy OK

Track 6

Filename C:\My Documents\My FLAC\Eddie Daniels… - One More The Summary, Music Of Thad Jones, Vol 2 (2006) [FLAC] {IPO Recordings}\06 - The Great One.wav

Peak level 99.8 %
Extraction speed 2.0 X
Track quality 100.0 %
Test CRC C857EAD0
Copy CRC C857EAD0
Accurately ripped (confidence 1) [62334557] (AR v2)
Copy OK

Track 7

Filename C:\My Documents\My FLAC\Eddie Daniels… - One More The Summary, Music Of Thad Jones, Vol 2 (2006) [FLAC] {IPO Recordings}\07 - Central Park North (Interlude).wav

Peak level 80.7 %
Extraction speed 2.1 X
Track quality 100.0 %
Test CRC 8EB63F6C
Copy CRC 8EB63F6C
Accurately ripped (confidence 1) [6CF1B832] (AR v2)
Copy OK

Track 8

Filename C:\My Documents\My FLAC\Eddie Daniels… - One More The Summary, Music Of Thad Jones, Vol 2 (2006) [FLAC] {IPO Recordings}\08 - Rejoice.wav

Peak level 79.5 %
Extraction speed 2.1 X
Track quality 99.9 %
Test CRC 9DFFD0A7
Copy CRC 9DFFD0A7
Accurately ripped (confidence 1) [FA2314A1] (AR v2)
Copy OK

Track 9

Filename C:\My Documents\My FLAC\Eddie Daniels… - One More The Summary, Music Of Thad Jones, Vol 2 (2006) [FLAC] {IPO Recordings}\09 - Three And One.wav

Peak level 79.0 %
Extraction speed 2.2 X
Track quality 99.9 %
Test CRC 54B2FD77
Copy CRC 54B2FD77
Accurately ripped (confidence 1) [A6C634A7] (AR v2)
Copy OK

Track 10

Filename C:\My Documents\My FLAC\Eddie Daniels… - One More The Summary, Music Of Thad Jones, Vol 2 (2006) [FLAC] {IPO Recordings}\10 - The Summary.wav

Peak level 37.4 %
Extraction speed 2.4 X
Track quality 100.0 %
Test CRC 9E63924B
Copy CRC 9E63924B
Accurately ripped (confidence 1) [25BA7DCC] (AR v2)
Copy OK


All tracks accurately ripped

No errors occurred

End of status report

–– CUETools DB Plugin V2.1.6

[CTDB TOCID: TEvhcz5lrUmMkp3YApo66yV6MkM-] disk not present in database
Submit result: TEvhcz5lrUmMkp3YApo66yV6MkM- has been uploaded


==== Log checksum BC6FB754E479E08699448EB2B37E9D2E70E807DDFCC3C49E2A2AA5AA2458FB0C ====


Eddie Daniels... - One More: The Summary - Music Of Thad Jones, Vol 2 (2006) {IPO Recordings)


Thank you to the original uploader.