Subcategories
Tags
Language
Tags

Aceyalone - All Balls Don't Bounce (1995) {Capitol} **[RE-UP]**

Posted By: TestTickles
Aceyalone - All Balls Don't Bounce (1995) {Capitol} **[RE-UP]**

Aceyalone - All Balls Don't Bounce (1995) {Capitol}
EAC Rip | FLAC with CUE and log | scans | 375 mb
MP3 CBR 320kbps | RAR | 170 mb
Genre: hip-hop, rap

All Balls Don't Bounce is the 1995 album by Edwin M. Hayes, Jr., better known under the mononym Aceyalone ("a.c. alone"). This was his major label debut for Capitol Records, as well as his last record for Capitol Records before becoming an indie artist. This featured the hit song "Mic Check".

Aceyalone - All Balls Don't Bounce (1995) {Capitol} **[RE-UP]**

01. All Balls
02. Anywhere You Go
03. Deep And Wide
04. Mr. Outsider
05. Annalillia
06. Knownots
07. Arhythamaticulas
08. The Greatest Show On Earth
09. Mic Check
10. Call It Cali
11. Headaches & Woes
12. I Think
13. Makeba
14. B-Boy Kingdom
15. Keep It True

Tracks 1, 4-5 produced by The Nonce
Tracks 2, 10-11 produced by Punish
Tracks 3, 6, 9 produced by Vic Hop
Track 7 produced by Chillin" Villin Empire
Tracks 8 & 13 produced by Mumbles
Track 12 produced by Aceylone
Tracks 14 & 15 produced by Fat Jack

All songs co-produced by Aceylone
Recorded by Sean Freehill
All tracks except track 11 mixed by Eric Seraphin
Track 11 mixed by Sean Freehill
Recorded by Sean Freehill
Additional recording engineer: James B. Mansfield
Mastered by Jason Arnold

Aceyalone - All Balls Don't Bounce (1995) {Capitol} **[RE-UP]**


EAC extraction logfile from 27. June 2017, 4:07 for CD
Aceyalone / All Balls Don't Bounce

Used drive : TSSTcorpDVD+-RW TS-H653B Adapter: 2 ID: 0
Read mode : Secure with NO C2, accurate stream, disable cache
Read offset correction : 6
Overread into Lead-In and Lead-Out : No

Used output format : Internal WAV Routines
44.100 Hz; 16 Bit; Stereo

Other options :
Fill up missing offset samples with silence : Yes
Delete leading and trailing silent blocks : No
Native Win32 interface for Win NT & 2000


Track 1
Filename C:\Documents and Settings\cuntfist\Desktop\FLAC's\17\Aceyalone - All Balls Don't Bounce (1995) [FLAC] {Capitol}\01 - All Balls.wav

Pre-gap length 0:00:02.00

Peak level 90.2 %
Track quality 99.9 %
Test CRC 2162298B
Copy CRC 2162298B
Copy OK

Track 2
Filename C:\Documents and Settings\cuntfist\Desktop\FLAC's\17\Aceyalone - All Balls Don't Bounce (1995) [FLAC] {Capitol}\02 - Anywhere You Go.wav

Peak level 90.7 %
Track quality 100.0 %
Test CRC 8D747EFA
Copy CRC 8D747EFA
Copy OK

Track 3
Filename C:\Documents and Settings\cuntfist\Desktop\FLAC's\17\Aceyalone - All Balls Don't Bounce (1995) [FLAC] {Capitol}\03 - Deep And Wide.wav

Pre-gap length 0:00:00.02

Peak level 75.0 %
Track quality 100.0 %
Test CRC 624D93BA
Copy CRC 624D93BA
Copy OK

Track 4
Filename C:\Documents and Settings\cuntfist\Desktop\FLAC's\17\Aceyalone - All Balls Don't Bounce (1995) [FLAC] {Capitol}\04 - Mr. Outsider.wav

Peak level 79.1 %
Track quality 100.0 %
Test CRC 3E798BC0
Copy CRC 3E798BC0
Copy OK

Track 5
Filename C:\Documents and Settings\cuntfist\Desktop\FLAC's\17\Aceyalone - All Balls Don't Bounce (1995) [FLAC] {Capitol}\05 - Annalillia .wav

Pre-gap length 0:00:01.33

Peak level 79.9 %
Track quality 100.0 %
Test CRC 183D1985
Copy CRC 183D1985
Copy OK

Track 6
Filename C:\Documents and Settings\cuntfist\Desktop\FLAC's\17\Aceyalone - All Balls Don't Bounce (1995) [FLAC] {Capitol}\06 - Knownots.wav

Pre-gap length 0:00:00.10

Peak level 96.5 %
Track quality 100.0 %
Test CRC 2EFF6F13
Copy CRC 2EFF6F13
Copy OK

Track 7
Filename C:\Documents and Settings\cuntfist\Desktop\FLAC's\17\Aceyalone - All Balls Don't Bounce (1995) [FLAC] {Capitol}\07 - Arhythamaticulas.wav

Pre-gap length 0:00:00.30

Peak level 77.2 %
Track quality 100.0 %
Test CRC 6B83017E
Copy CRC 6B83017E
Copy OK

Track 8
Filename C:\Documents and Settings\cuntfist\Desktop\FLAC's\17\Aceyalone - All Balls Don't Bounce (1995) [FLAC] {Capitol}\08 - The Greatest Show On Earth.wav

Pre-gap length 0:00:00.60

Peak level 100.0 %
Track quality 100.0 %
Test CRC 16695C1A
Copy CRC 16695C1A
Copy OK

Track 9
Filename C:\Documents and Settings\cuntfist\Desktop\FLAC's\17\Aceyalone - All Balls Don't Bounce (1995) [FLAC] {Capitol}\09 - Mic Check.wav

Peak level 100.0 %
Track quality 100.0 %
Test CRC C9288378
Copy CRC C9288378
Copy OK

Track 10
Filename C:\Documents and Settings\cuntfist\Desktop\FLAC's\17\Aceyalone - All Balls Don't Bounce (1995) [FLAC] {Capitol}\10 - Call It Cali.wav

Peak level 77.1 %
Track quality 99.8 %
Test CRC CB50A48A
Copy CRC CB50A48A
Copy OK

Track 11
Filename C:\Documents and Settings\cuntfist\Desktop\FLAC's\17\Aceyalone - All Balls Don't Bounce (1995) [FLAC] {Capitol}\11 - Headaches & Woes.wav

Pre-gap length 0:00:00.06

Peak level 91.7 %
Track quality 100.0 %
Test CRC F0355723
Copy CRC F0355723
Copy OK

Track 12
Filename C:\Documents and Settings\cuntfist\Desktop\FLAC's\17\Aceyalone - All Balls Don't Bounce (1995) [FLAC] {Capitol}\12 - I Think.wav

Peak level 88.7 %
Track quality 99.8 %
Test CRC E0B2151D
Copy CRC E0B2151D
Copy OK

Track 13
Filename C:\Documents and Settings\cuntfist\Desktop\FLAC's\17\Aceyalone - All Balls Don't Bounce (1995) [FLAC] {Capitol}\13 - Makeba.wav

Pre-gap length 0:00:00.53

Peak level 100.0 %
Track quality 100.0 %
Test CRC B1A50C81
Copy CRC B1A50C81
Copy OK

Track 14
Filename C:\Documents and Settings\cuntfist\Desktop\FLAC's\17\Aceyalone - All Balls Don't Bounce (1995) [FLAC] {Capitol}\14 - B-Boy Kingdom.wav

Pre-gap length 0:00:01.26

Peak level 86.5 %
Track quality 100.0 %
Test CRC E0AF74CB
Copy CRC E0AF74CB
Copy OK

Track 15
Filename C:\Documents and Settings\cuntfist\Desktop\FLAC's\17\Aceyalone - All Balls Don't Bounce (1995) [FLAC] {Capitol}\15 - Keep It True.wav

Peak level 97.0 %
Track quality 100.0 %
Test CRC 3D27E613
Copy CRC 3D27E613
Copy OK

No errors occured


End of status report


Aceyalone - All Balls Don't Bounce (1995) {Capitol} **[RE-UP]**