Subcategories

Acid Mothers Temple & The Melting Paraiso U.F.O. - Wild Gals A Go-Go (1999) {2006 Swordfish/Riot Season}

Posted By: TestTickles
Acid Mothers Temple & The Melting Paraiso U.F.O. - Wild Gals A Go-Go (1999) {2006 Swordfish/Riot Season}

Acid Mothers Temple & The Melting Paraiso U.F.O. - Wild Gals A Go-Go (1999) {2006 Swordfish/Riot Season}
EAC Rip | FLAC with CUE and LOG | scans | 364 mb
MP3 CBR 320 kbps | RAR | 157 mb
Genre: psychedelic rock

Wild Gals A Go-Go is the 1999 album by Acid Mothers Temple & The Melting Paraiso U.F.O. A psychedelic festival of fun, this was released in 2006 by Swordfish/Riot Season.

Acid Mothers Temple & The Melting Paraiso U.F.O. - Wild Gals A Go-Go (1999) {2006 Swordfish/Riot Season}

1. Reverse Of Universe I (6:53)
2. Space Bambino/Interstellar Over Dope (10:09)
3. Sweet Juicy Lucy (7:11)
4. Mammary Intercourse (6:27)
5. Hare Hare Hallelujah/Blow Out Super High (18:23)
6. Good-Bye Ice Cream/Stone Blind Blue Heaven (14:29)
7. Reverse Of The Universe II (6:08)

Exact Audio Copy V0.99 prebeta 5 from 4. May 2009

EAC extraction logfile from 9. December 2009, 9:48

Acid Mothers Temple & The Melting Paraiso U.F.O. / Wild Gals A Go-Go

Used drive : HL-DT-STDVD+-RW GSA-H73N Adapter: 1 ID: 0

Read mode : Secure
Utilize accurate stream : Yes
Defeat audio cache : Yes
Make use of C2 pointers : No

Read offset correction : 102
Overread into Lead-In and Lead-Out : No
Fill up missing offset samples with silence : Yes
Delete leading and trailing silent blocks : No
Null samples used in CRC calculations : Yes
Used interface : Native Win32 interface for Win NT & 2000
Gap handling : Appended to previous track

Used output format : User Defined Encoder
Selected bitrate : 768 kBit/s
Quality : High
Add ID3 tag : No
Command line compressor : D:\Program Files\Exact Audio Copy\FLAC\FLAC.EXE
Additional command line options : -V -8 -T "artist=%a" -T "title=%t" -T "album=%g" -T "date=%y" -T "tracknumber=%n" -T "genre=%m" %s

TOC of the extracted CD

Track | Start | Length | Start sector | End sector
––––––––––––––––––––––––––––-
1 | 0:00.00 | 6:53.26 | 0 | 31000
2 | 6:53.26 | 10:08.43 | 31001 | 76643
3 | 17:01.69 | 7:10.43 | 76644 | 108936
4 | 24:12.37 | 6:27.26 | 108937 | 137987
5 | 30:39.63 | 18:23.25 | 137988 | 220737
6 | 49:03.13 | 14:28.38 | 220738 | 285875
7 | 63:31.51 | 6:08.31 | 285876 | 313506

Track 1

Filename C:\cuntfist\FLAC\Acid Mothers Temple & The Melting Paraiso U.F.O. - Wild Gals A Go-Go (1999) [FLAC] {2006 Swordfish, Riot Season}\01 - Reverse Of Universe I.wav

Pre-gap length 0:00:02.00

Peak level 78.7 %
Track quality 99.9 %
Test CRC 3EE67FFE
Copy CRC 3EE67FFE
Accurately ripped (confidence 1) [2903A5A7]
Copy OK

Track 2

Filename C:\cuntfist\FLAC\Acid Mothers Temple & The Melting Paraiso U.F.O. - Wild Gals A Go-Go (1999) [FLAC] {2006 Swordfish, Riot Season}\02 - Space Bambino, Intersteller over Dope.wav

Peak level 100.0 %
Track quality 100.0 %
Test CRC 15A6869D
Copy CRC 15A6869D
Accurately ripped (confidence 1) [E3992A1C]
Copy OK

Track 3

Filename C:\cuntfist\FLAC\Acid Mothers Temple & The Melting Paraiso U.F.O. - Wild Gals A Go-Go (1999) [FLAC] {2006 Swordfish, Riot Season}\03 - Sweet Juicy Lucy.wav

Peak level 100.0 %
Track quality 100.0 %
Test CRC DC5A50E4
Copy CRC DC5A50E4
Accurately ripped (confidence 1) [4B58F798]
Copy OK

Track 4

Filename C:\cuntfist\FLAC\Acid Mothers Temple & The Melting Paraiso U.F.O. - Wild Gals A Go-Go (1999) [FLAC] {2006 Swordfish, Riot Season}\04 - Mammary Intercourse.wav

Peak level 100.0 %
Track quality 100.0 %
Test CRC DF9ECDB6
Copy CRC DF9ECDB6
Accurately ripped (confidence 1) [19A6AA37]
Copy OK

Track 5

Filename C:\cuntfist\FLAC\Acid Mothers Temple & The Melting Paraiso U.F.O. - Wild Gals A Go-Go (1999) [FLAC] {2006 Swordfish, Riot Season}\05 - Hare Hare Hallelujah, Blow Out Super High.wav

Peak level 100.0 %
Track quality 100.0 %
Test CRC BC7BE64F
Copy CRC BC7BE64F
Accurately ripped (confidence 1) [824E75F1]
Copy OK

Track 6

Filename C:\cuntfist\FLAC\Acid Mothers Temple & The Melting Paraiso U.F.O. - Wild Gals A Go-Go (1999) [FLAC] {2006 Swordfish, Riot Season}\06 - Good-Bye Ice Cream, Stone Blind Blue Heaven.wav

Peak level 100.0 %
Track quality 100.0 %
Test CRC 74C44778
Copy CRC 74C44778
Accurately ripped (confidence 1) [7F2F01A8]
Copy OK

Track 7

Filename C:\cuntfist\FLAC\Acid Mothers Temple & The Melting Paraiso U.F.O. - Wild Gals A Go-Go (1999) [FLAC] {2006 Swordfish, Riot Season}\07 - Reverse of the Universe II.wav

Peak level 98.3 %
Track quality 100.0 %
Test CRC F5430E82
Copy CRC F5430E82
Accurately ripped (confidence 1) [7D69277F]
Copy OK

All tracks accurately ripped

No errors occurred

End of status report


Acid Mothers Temple & The Melting Paraiso U.F.O. - Wild Gals A Go-Go (1999) {2006 Swordfish/Riot Season}


Thank you to the original uploader.