Subcategories

Alphaville - Big In Japan 1992 A.D. (Germany CD5) (1992) {WEA}

Posted By: TestTickles
Alphaville - Big In Japan 1992 A.D. (Germany CD5) (1992) {WEA}

Alphaville - Big In Japan 1992 A.D. (Germany CD5) (1992) {WEA}
EAC Rip | FLAC with CUE and LOG | scans | 156 mb
MP3 CBR 320 kbps | RAR | 73 mb
Genre: synth-pop

Big In Japan 1992 A.D. is the 1992 German CD5 by Alphaville. It features four different remixes of "Big In Japan". This was released by WEA.

Alphaville - Big In Japan 1992 A.D. (Germany CD5) (1992) {WEA}

1. Big In Japan (Freedom Mix. Single Edit)
2. Big In Japan (The Mix. Single Edit)
3. Big In Japan (Freedom Mix. Extended Version)
4. Big In Japan (The Mix. Extended Version)

Exact Audio Copy V1.0 beta 6 from 9. April 2015

EAC extraction logfile from 11. October 2015, 18:25

Alphaville / Big In Japan 1992 A.D. (Germany CD5)

Used drive : PIONEER DVD-RW DVR-221L Adapter: 1 ID: 1

Read mode : Secure
Utilize accurate stream : Yes
Defeat audio cache : Yes
Make use of C2 pointers : No

Read offset correction : 6
Overread into Lead-In and Lead-Out : No
Fill up missing offset samples with silence : Yes
Delete leading and trailing silent blocks : No
Null samples used in CRC calculations : Yes
Used interface : Native Win32 interface for Win NT & 2000
Gap handling : Appended to previous track

Used output format : User Defined Encoder
Selected bitrate : 1024 kBit/s
Quality : High
Add ID3 tag : Yes
Command line compressor : C:\Program Files (x86)\Exact Audio Copy\FLAC\FLAC.EXE
Additional command line options : -6 -V -T "COMMENT=ripped by RRC" -T "ARTIST=%artist%" -T "TITLE=%title%" -T "ALBUM=%albumtitle%" -T "DATE=%year%" -T "TRACKNUMBER=%tracknr%" -T "GENRE=%genre%" -T "BAND=%albuminterpret%" -T "ALBUMARTIST=%albuminterpret%" -T "COMPOSER=%composer%" %haslyrics%–tag-from-file=LYRICS="%lyricsfile%"%haslyrics% -T "DISCNUMBER=%cdnumber%" -T "TOTALDISCS=%totalcds%" -T "TOTALTRACKS=%numtracks%" %hascover%–picture="%coverfile%"%hascover% %source%


TOC of the extracted CD

Track | Start | Length | Start sector | End sector
––––––––––––––––––––––––––––-
1 | 0:00.00 | 3:21.40 | 0 | 15114
2 | 3:21.40 | 4:18.35 | 15115 | 34499
3 | 7:40.00 | 4:54.22 | 34500 | 56571
4 | 12:34.22 | 6:05.08 | 56572 | 83954


Track 1

Filename C:\cuntfist\FLAC\Alphaville - Big In Japan 1992 A.D. (Germany CD5) (1992) [FLAC] {WEA}\01 - Big In Japan (Freedom Mix - Single Edit).wav

Pre-gap length 0:00:02.00

Peak level 83.7 %
Extraction speed 3.4 X
Track quality 99.9 %
Test CRC 8518202D
Copy CRC 8518202D
Accurately ripped (confidence 15) [E967EB47] (AR v2)
Copy OK

Track 2

Filename C:\cuntfist\FLAC\Alphaville - Big In Japan 1992 A.D. (Germany CD5) (1992) [FLAC] {WEA}\02 - Big In Japan (The Mix - Single Edit).wav

Pre-gap length 0:00:01.55

Peak level 99.1 %
Extraction speed 4.9 X
Track quality 100.0 %
Test CRC 2963F0AB
Copy CRC 2963F0AB
Accurately ripped (confidence 15) [CC65BC74] (AR v2)
Copy OK

Track 3

Filename C:\cuntfist\FLAC\Alphaville - Big In Japan 1992 A.D. (Germany CD5) (1992) [FLAC] {WEA}\03 - Big In Japan (Freedom Mix - Extended Version).wav

Pre-gap length 0:00:01.53

Peak level 89.6 %
Extraction speed 5.5 X
Track quality 100.0 %
Test CRC 1E5B3532
Copy CRC 1E5B3532
Accurately ripped (confidence 15) [5E84A178] (AR v2)
Copy OK

Track 4

Filename C:\cuntfist\FLAC\Alphaville - Big In Japan 1992 A.D. (Germany CD5) (1992) [FLAC] {WEA}\04 - Big In Japan (The Mix - Extended Version).wav

Pre-gap length 0:00:01.55

Peak level 100.0 %
Extraction speed 6.2 X
Track quality 100.0 %
Test CRC B94A5DA2
Copy CRC B94A5DA2
Accurately ripped (confidence 14) [39A227E0] (AR v2)
Copy OK


All tracks accurately ripped

No errors occurred

End of status report

–– CUETools DB Plugin V2.1.6

[CTDB TOCID: A4tCse3fDEzmBLORNKoElqzWKJ0-] found
Submit result: A4tCse3fDEzmBLORNKoElqzWKJ0- has been confirmed
Track | CTDB Status
1 | (23/23) Accurately ripped
2 | (22/23) Accurately ripped
3 | (22/23) Accurately ripped
4 | (23/23) Accurately ripped


==== Log checksum A83DD7CCD609F50370E31C8E2D5FE18548F20F8CFE64EA28C64598AF871B91C4 ====



Alphaville - Big In Japan 1992 A.D. (Germany CD5) (1992) {WEA}


Thank you to the original uploader.