Subcategories

...And Oceans - Cosmic World Mother (2020) {Season Of Mist}

Posted By: TestTickles
...And Oceans - Cosmic World Mother (2020) {Season Of Mist}

…And Oceans - Cosmic World Mother (2020) {Season Of Mist}
WEB Rip | FLAC with foobar2000 | scans | 367 mb
Genre: atmospheric black metal

Finland black metal band …And Oceans have given us a new album in 2020 and it is called Cosmic World Mother. It has been put out by Season Of Mist.

(If you would like this as an MP3, please click here.)

01. The Dissolution Of Mind And Matter (4:09)
02. Vigilance And Atrophy (4:38)
03. Five Of Swords (5:02)
04. As The After Becomes The Before (5:13)
05. Cosmic World Mother (4:37)
06. Helminthiasis (4:26)
07. Oscillator Epitaph (3:54)
08. In Abhorrence Upon Meadows (2:29)
09. Apokatastasis (4:21)
10. One Of Light, One Of Soil (3:17)
11. The Flickering Lights (5:24)

foobar2000 1.5.2 / Dynamic Range Meter 1.1.1
log date: 2020-05-18 08:06:14
––––––––––––––––––––––––––––––––––––––––
Analyzed: …And Oceans / Cosmic World Mother
––––––––––––––––––––––––––––––––––––––––
DR Peak RMS Duration Track
––––––––––––––––––––––––––––––––––––––––
DR8 -2.40 dB -11.09 dB 4:09 01 - The Dissolution Of Mind And Matter
DR8 -2.57 dB -11.45 dB 4:38 02 - Vigilance And Atrophy
DR8 -2.54 dB -11.12 dB 5:02 03 - Five Of Swords
DR8 -2.54 dB -10.85 dB 5:13 04 - As The After Becomes The Before
DR8 -2.49 dB -11.73 dB 4:37 05 - Cosmic World Mother
DR8 -2.59 dB -12.03 dB 4:26 06 - Helminthiasis
DR8 -2.49 dB -11.41 dB 3:54 07 - Oscillator Epitaph
DR9 -4.33 dB -16.35 dB 2:29 08 - In Abhorrence Upon Meadows
DR8 -2.59 dB -11.04 dB 4:21 09 - Apokatastasis
DR8 -2.53 dB -11.17 dB 3:17 10 - One Of Light, One Of Soil
DR8 -2.57 dB -12.00 dB 5:28 11 - The Flickering Lights
––––––––––––––––––––––––––––––––––––––––
Number of tracks: 11
Official DR value: DR8
Samplerate: 44100 Hz
Channels: 2
Bits per sample: 24
Bitrate: 1762 kbps
Codec: FLAC
================================================================================


...And Oceans - Cosmic World Mother (2020) {Season Of Mist}


Thank you to the original uploader.