Subcategories
Tags
Language
Tags

VA - Specialty, Hifijazz, Nocturne: Original Jazz Classics Sampler (2002) **[RE-UP]**

Posted By: TestTickles
VA - Specialty, Hifijazz, Nocturne: Original Jazz Classics Sampler (2002) **[RE-UP]**

VA - Specialty, Hifijazz, Nocturne: Original Jazz Classics Sampler (2002)
EAC Rip | FLAC with CUE and log | scans | 415 mb
MP3 CBR 320kbps | RAR | 160 mb
Genre: jazz

A wonderful compilation that explains itself in the title: Specialty, Hifijazz, Nocturne-Original Jazz Classics Sampler. It's a number of labels once owned by the same company, partly known for their jazz catalogs, compiled in one place in a nice compact manner.

This sampler CD was released to highlight reissues of jazz originally released on the Specialty, Hifijazz, and Nocturne labels. It may be a simple "sampler", but it features some incredible performances. It also offers jazz fans a chance to hear how good the remaster is before purchasing the individual CD's. This is also a way to hear some of the early productions of David Axelrod. When he was selected to be a producer for Art Rupe and Specialty Records, he was a 20-year old jazz pianist struggling but willing to play with anyone. He was involved in a few sessions before Rupe started rejecting some of the recordings Axelrod produced. Axelrod would leave, never to work with him again, and found himself working with the brand new Hifijazz labe, a new subsidiary of Hifi Records. Axelrod preferred a harder, East Coast sound, and this was to Hifijazz's interest, where they made Axelrod the A&R of the label. It is during his stay with Hifijazz that he became friends with drummer Earl Palmer, who sits in on the King Pleasure session that is on this CD. After going to film school for a few years, Axelrod returned to the music scene and found a position as a staff producer with Capitol Records. It is in the Capitol recording studio where he perfected his arrangements and techniques, and worked extensively with Earl Palmer. This would lead to Capitol giving Axelrod a contract to release music under his own name, leading to a string of albums that would become as influential to some hip-hop producers just as the first batch of Velvet Underground albums have been to thousands of rock & roll musicians since the 1960's.

VA - Specialty, Hifijazz, Nocturne: Original Jazz Classics Sampler (2002) **[RE-UP]**

01. Lee Morgan/Wynton Kelly - Day By Day (Take 2)
02. Gerald Wiggins - Around The World, Part 1
03. Buddy Collette - C'est Si Bon
04. Frank Rosolino - Don't Take Your Love From Me (Alternate)
05. Harold Land - The Fox
06. Elmo Hope - Barfly
07. Jimmy Witherspoon - Big Fine Girl
08. Paul Horn - Something Blue
09. King Pleasure - Parker's Mood
10. Bill Holman/Richie Kamuca - Star Eyes
11. Herbie Harper - Sanguine
12. Bud Shank/Shorty Rogers - Casa De Luz
13. Lou Levy - Tiny's Other Blues
14. Virgil Gonsalves - Love Me Or Leave Me
15. Steve White - My New Jet Plane
16. Harry Babasin - La Rosita
17. Bob Enevoldsen - Dança Do Brasil

EAC extraction logfile from 2. March 2007, 18:18 for CD
Various Artists / Specialty, Hifijazz, Nocturne-Original Jazz Classics Sampler

Used drive : LITE-ON DVDRW SOHW-1633S Adapter: 0 ID: 0
Read mode : Secure with NO C2, accurate stream, disable cache
Read offset correction : 12
Overread into Lead-In and Lead-Out : No

Used output format : Internal WAV Routines
44.100 Hz; 16 Bit; Stereo

Other options :
Fill up missing offset samples with silence : Yes
Delete leading and trailing silent blocks : No
Installed external ASPI interface


Track 1
Filename D:\FLAC\VA - Specialty, Hifijazz, Nocturne-Original Jazz Classics Sampler (2002) [FLAC]\01 - Lee Morgan, Wynton Kelly - Day By Day.wav

Pre-gap length 0:00:02.00

Peak level 92.6 %
Track quality 99.9 %
Test CRC 0B52FB3B
Copy CRC 0B52FB3B
Copy OK

Track 2
Filename D:\FLAC\VA - Specialty, Hifijazz, Nocturne-Original Jazz Classics Sampler (2002) [FLAC]\02 - Gerald Wiggins - Around The World, Part 1.wav

Pre-gap length 0:00:01.77

Peak level 98.8 %
Track quality 100.0 %
Test CRC A13F694D
Copy CRC A13F694D
Copy OK

Track 3
Filename D:\FLAC\VA - Specialty, Hifijazz, Nocturne-Original Jazz Classics Sampler (2002) [FLAC]\03 - Buddy Collette - C'est Si Bon.wav

Pre-gap length 0:00:01.24

Peak level 98.4 %
Track quality 100.0 %
Test CRC 44643A35
Copy CRC 44643A35
Copy OK

Track 4
Filename D:\FLAC\VA - Specialty, Hifijazz, Nocturne-Original Jazz Classics Sampler (2002) [FLAC]\04 - Frank Rosolino - Don't Take Your Love From Me (Alternate).wav

Pre-gap length 0:00:02.02

Peak level 100.0 %
Track quality 100.0 %
Test CRC 0254BE3F
Copy CRC 0254BE3F
Copy OK

Track 5
Filename D:\FLAC\VA - Specialty, Hifijazz, Nocturne-Original Jazz Classics Sampler (2002) [FLAC]\05 - Harold Land - The Fox.wav

Pre-gap length 0:00:01.57

Peak level 100.0 %
Track quality 100.0 %
Test CRC 8ED72841
Copy CRC 8ED72841
Copy OK

Track 6
Filename D:\FLAC\VA - Specialty, Hifijazz, Nocturne-Original Jazz Classics Sampler (2002) [FLAC]\06 - Elmo Hope - Barfly.wav

Pre-gap length 0:00:01.46

Peak level 73.4 %
Track quality 100.0 %
Test CRC FFDE0E76
Copy CRC FFDE0E76
Copy OK

Track 7
Filename D:\FLAC\VA - Specialty, Hifijazz, Nocturne-Original Jazz Classics Sampler (2002) [FLAC]\07 - Jimmy Witherspoon - Big Fine Girl.wav

Pre-gap length 0:00:01.30

Peak level 100.0 %
Track quality 99.9 %
Test CRC 72D65D02
Copy CRC 72D65D02
Copy OK

Track 8
Filename D:\FLAC\VA - Specialty, Hifijazz, Nocturne-Original Jazz Classics Sampler (2002) [FLAC]\08 - Paul Horn - Something Blue.wav

Pre-gap length 0:00:01.50

Peak level 100.0 %
Track quality 100.0 %
Test CRC EEC885F2
Copy CRC EEC885F2
Copy OK

Track 9
Filename D:\FLAC\VA - Specialty, Hifijazz, Nocturne-Original Jazz Classics Sampler (2002) [FLAC]\09 - King Pleasure - Parker's Mood.wav

Pre-gap length 0:00:01.60

Peak level 100.0 %
Track quality 100.0 %
Test CRC EB2DA67F
Copy CRC EB2DA67F
Copy OK

Track 10
Filename D:\FLAC\VA - Specialty, Hifijazz, Nocturne-Original Jazz Classics Sampler (2002) [FLAC]\10 - Bill Holman, Richie Kamuca - Star Eyes.wav

Pre-gap length 0:00:01.44

Peak level 100.0 %
Track quality 100.0 %
Test CRC E3B2BB95
Copy CRC E3B2BB95
Copy OK

Track 11
Filename D:\FLAC\VA - Specialty, Hifijazz, Nocturne-Original Jazz Classics Sampler (2002) [FLAC]\11 - Herbie Harper - Sanguine.wav

Pre-gap length 0:00:01.69

Peak level 99.6 %
Track quality 100.0 %
Test CRC 8CD3F4DC
Copy CRC 8CD3F4DC
Copy OK

Track 12
Filename D:\FLAC\VA - Specialty, Hifijazz, Nocturne-Original Jazz Classics Sampler (2002) [FLAC]\12 - Bud Shank, Shorty Rogers - Casa De Luz.wav

Pre-gap length 0:00:01.82

Peak level 100.0 %
Track quality 99.9 %
Test CRC B04DD846
Copy CRC B04DD846
Copy OK

Track 13
Filename D:\FLAC\VA - Specialty, Hifijazz, Nocturne-Original Jazz Classics Sampler (2002) [FLAC]\13 - Lou Levy - Tiny's Other Blues.wav

Pre-gap length 0:00:01.40

Peak level 95.8 %
Track quality 99.9 %
Test CRC 5D8EC218
Copy CRC 5D8EC218
Copy OK

Track 14
Filename D:\FLAC\VA - Specialty, Hifijazz, Nocturne-Original Jazz Classics Sampler (2002) [FLAC]\14 - Virgil Gonsalves - Love Me Or Leave Me.wav

Pre-gap length 0:00:01.86

Peak level 99.2 %
Track quality 99.9 %
Test CRC 6ABBA052
Copy CRC 6ABBA052
Copy OK

Track 15
Filename D:\FLAC\VA - Specialty, Hifijazz, Nocturne-Original Jazz Classics Sampler (2002) [FLAC]\15 - Steve White - My New Jet Plane.wav

Pre-gap length 0:00:02.09

Peak level 100.0 %
Track quality 100.0 %
Test CRC 612F81C9
Copy CRC 612F81C9
Copy OK

Track 16
Filename D:\FLAC\VA - Specialty, Hifijazz, Nocturne-Original Jazz Classics Sampler (2002) [FLAC]\16 - Harry Babasin - La Rosita.wav

Pre-gap length 0:00:02.56

Peak level 97.1 %
Track quality 100.0 %
Test CRC EF274B17
Copy CRC EF274B17
Copy OK

Track 17
Filename D:\FLAC\VA - Specialty, Hifijazz, Nocturne-Original Jazz Classics Sampler (2002) [FLAC]\17 - Bob Enevoldsen - Danca Do Brasil.wav

Pre-gap length 0:00:02.26

Peak level 75.2 %
Track quality 100.0 %
Test CRC 26A240FC
Copy CRC 26A240FC
Copy OK

No errors occured


End of status report


Guitare Classique N.73 - Juin-Août 2016