Subcategories

Spinners - Love Trippin' (1980) {2007 American Beat} **[RE-UP]**

Posted By: TestTickles
Spinners - Love Trippin' (1980) {2007 American Beat} **[RE-UP]**

Spinners - Love Trippin' (1980) {2007 American Beat}
EAC Rip | FLAC with CUE and log | scans | 231 mb
MP3 CBR 320kbps | RAR | 99 mb
Genre: R&B, soul, disco

Love Trippin' is the 1980 album by The Spinners, known in Europe as The Detroit Spinners. Featuring the hit song "Cupid/I've Loved You For A Long Time", this CD was released on 29 May, 2007 by American Beat.
With Love Trippin' the Spinners transitioned from a decade they helped define to a new decade dominated by the last days of disco and the emergence of rap–the presence of producer/arranger Michael Zager portends a full-blown paean to dancefloor sensibilities, but Zager wisely emphasizes the group's rapturous harmonies, creating a Spinners record for the Eighties instead of an Eighties record for the Spinners. But the songs are uniformly bland–it speaks volumes that the album's biggest hit was a medley, "Cupid/I've Loved You for a Long Time"–and not even the vocals can salvage duds like "Split Decision" and "Heavy on the Decision." Even worse, it was downhill from here.

Spinners - Love Trippin' (1980) {2007 American Beat} **[RE-UP]**

01. Love Trippin'
02. Heavy On The Sunshine
03. Medley: Cupid/I've Loved You For A Long Time
04. I Just Want To Be With You
05. Streetwise
06. I Just Want To Fall In Love
07. Now That You're Mine Again
08. Split Decision
09. I'm Takin' You Back
10. Pipedream

–-
SPINNERS:
Henry Fambrough
John Edwards
Billy Henderson
Pervis Jackson
Bobbie Smith
All background vocals by The Spinners

###

PLAYERS RHYTHM:
(tracks 1, 3 & 6)
Yogi Horton-drums
Francisco Centeno-drums
Cornell Dupree-guitar
John Tropea-guitar
Steve Lowe-guitar (tracks 1 & 3)
Raymond Chew-keyboards

(tracks 4 & 10)
Allan Schwartzberg-drums
Francisco Centeno-drums
Cliff Morris-guitar
Steve Lowe-guitar (track 4)
Pat Rebillot-keyboards

(tracks 7-9)
Allan Schwartzberg-drums
Francisco Centeno-drums
Cornell Dupree-guitar
John Tropea-guitar
Steve Lowe-guitar (track 8)
Raymond Chew-keyboards

(tracks 2 & 5)
Allan Schwartzberg-drums
Francisco Centeno-drums
Jeff Mironov-guitar
Cliff Morris-guitar
Pat Rebillot-keyboards

(all tracks)
Rubens Bassini-percussion
Jimmy Maelen-percussion
Pat Rebillot-synthesizers
Ed Walsh-synthesizer programmer
Dave Carey-vibes

###

PLAYERS HORNS:
Randy Brecker-trumpet & flugelhorn (tracks 1, 2, 5, 7 & 9)
John Gatchell-trumpet & flugelhorn (tracks 1-3, 6, 8 & 9)
Bob Millikan-trumpet & flugelhorn (tracks 1, 6 & 8)
Jon Faddis-trumpet & flugelhorn (tracks 5 & 7)
Arnie Lawrence-alto sax & flute
Akab Riss-alto sax & flute
Michael Brecker-tenor sax & flute
Ronnie Cuber-baritone sax
Keith O'Quinn-trombone
Sam Burtis-trombone

###

PLAYERS STRINGS
The Alfred V. Brown String Section
Concert master: Gene Orloff

###

Produced, arranged, and conducted by Michael Zager
Recorded at Media Sound, New York
Engineer: Michael Barbiero
Additional overdub engineer: Alec Head
Assistant: Carl Beatty

EAC extraction logfile from 2. October 2007, 12:07 for CD
Spinners / Love Trippin'

Used drive : LITE-ON DVDRW SOHW-1633S Adapter: 0 ID: 0
Read mode : Secure with NO C2, accurate stream, disable cache
Read offset correction : 12
Overread into Lead-In and Lead-Out : No

Used output format : Internal WAV Routines
44.100 Hz; 16 Bit; Stereo

Other options :
Fill up missing offset samples with silence : Yes
Delete leading and trailing silent blocks : No
Installed external ASPI interface


Track 1
Filename D:\FLAC\Spinners - Love Trippin' (1980) [FLAC] {2007 American Beat}\01 - Love Trippin'.wav

Pre-gap length 0:00:02.00

Peak level 84.3 %
Track quality 100.0 %
Test CRC 4250D262
Copy CRC 4250D262
Copy OK

Track 2
Filename D:\FLAC\Spinners - Love Trippin' (1980) [FLAC] {2007 American Beat}\02 - Heavy On The Sunshine.wav

Peak level 76.7 %
Track quality 100.0 %
Test CRC 40A5343A
Copy CRC 40A5343A
Copy OK

Track 3
Filename D:\FLAC\Spinners - Love Trippin' (1980) [FLAC] {2007 American Beat}\03 - Medley- Cupid, I've Loved You For A Long Time.wav

Peak level 91.5 %
Track quality 100.0 %
Test CRC EF390C31
Copy CRC EF390C31
Copy OK

Track 4
Filename D:\FLAC\Spinners - Love Trippin' (1980) [FLAC] {2007 American Beat}\04 - I Just Want To Be With You.wav

Peak level 68.2 %
Track quality 100.0 %
Test CRC B1F66D04
Copy CRC B1F66D04
Copy OK

Track 5
Filename D:\FLAC\Spinners - Love Trippin' (1980) [FLAC] {2007 American Beat}\05 - Streetwise.wav

Peak level 95.5 %
Track quality 100.0 %
Test CRC 0B7C4A0F
Copy CRC 0B7C4A0F
Copy OK

Track 6
Filename D:\FLAC\Spinners - Love Trippin' (1980) [FLAC] {2007 American Beat}\06 - I Just Want To Fall In Love.wav

Peak level 85.1 %
Track quality 100.0 %
Test CRC 493A3F61
Copy CRC 493A3F61
Copy OK

Track 7
Filename D:\FLAC\Spinners - Love Trippin' (1980) [FLAC] {2007 American Beat}\07 - Now That You're Mine Again.wav

Peak level 60.1 %
Track quality 100.0 %
Test CRC 77CEDB52
Copy CRC 77CEDB52
Copy OK

Track 8
Filename D:\FLAC\Spinners - Love Trippin' (1980) [FLAC] {2007 American Beat}\08 - Split Decision.wav

Peak level 59.5 %
Track quality 100.0 %
Test CRC 8D555232
Copy CRC 8D555232
Copy OK

Track 9
Filename D:\FLAC\Spinners - Love Trippin' (1980) [FLAC] {2007 American Beat}\09 - I'm Takin' You Back.wav

Peak level 85.3 %
Track quality 100.0 %
Test CRC D104C51B
Copy CRC D104C51B
Copy OK

Track 10
Filename D:\FLAC\Spinners - Love Trippin' (1980) [FLAC] {2007 American Beat}\10 - Pipedream.wav

Peak level 78.0 %
Track quality 100.0 %
Test CRC EE4FDA9C
Copy CRC EE4FDA9C
Copy OK

No errors occured


End of status report


Spinners - Love Trippin' (1980) {2007 American Beat} **[RE-UP]**