Subcategories
Tags
Language
Tags

SRC - Milestones (1969) {1991 One Way} **[RE-UP]**

Posted By: TestTickles
SRC - Milestones (1969) {1991 One Way} **[RE-UP]**

SRC - Milestones (1969) {1991 One Way}
EAC Rip | FLAC with CUE and log | scans | 262 mb
MP3 CBR 320kbps | RAR | 99 mb
Genre: psychedelic rock

Milestones is the 1969 album by SRC, the group's second album. Released on Capitol Records, this 1991 CD was released by the One Way label.
Their second album, although rather erratic, proved to be SRC's most popular. Containing their version of Grieg's "In the Hall of the Mountain King" and Ravel's "Bolero," it's easy to see why they were such a draw in the psychedelic ballrooms across the Midwest in the late '60s.

SRC - Milestones (1969) {1991 One Way} **[RE-UP]**

1. No Secret Destination
2. Show Me
3. Eye of the Storm
4. I Remember Your Face
5. In the Hall Of the Mountain King/Bolero
6. Checkmate
7. Our Little Secret
8. Turn Into Love
9. Up All Night
10. The Angel Song
–-
Al Wilmot - bass & vocal
Gary Quackenbush - lead guitar
Glenn Quackenbush - keyboards
Steve Lyman - guitar & vocal
E.G. Clawson - percussion
Scott Richardsonn - vocal

Recorded at home (Detroit)
Produced by John Eddins & SRC

SRC - Milestones (1969) {1991 One Way} **[RE-UP]**


EAC extraction logfile from 3. March 2007, 18:57 for CD
SRC / Milestones

Used drive : LITE-ON DVDRW SOHW-1633S Adapter: 0 ID: 0
Read mode : Secure with NO C2, accurate stream, disable cache
Read offset correction : 12
Overread into Lead-In and Lead-Out : No

Used output format : Internal WAV Routines
44.100 Hz; 16 Bit; Stereo

Other options :
Fill up missing offset samples with silence : Yes
Delete leading and trailing silent blocks : No
Installed external ASPI interface


Track 1
Filename D:\FLAC\SRC - Milestones (1969) ]FLAC] {1991 One Way}\01 - No Secret Destination.wav

Pre-gap length 0:00:02.42

Peak level 66.2 %
Track quality 100.0 %
Test CRC 78FD4522
Copy CRC 78FD4522
Copy OK

Track 2
Filename D:\FLAC\SRC - Milestones (1969) ]FLAC] {1991 One Way}\02 - Show Me.wav

Pre-gap length 0:00:02.86

Peak level 83.6 %
Track quality 100.0 %
Test CRC 2D3E4889
Copy CRC 2D3E4889
Copy OK

Track 3
Filename D:\FLAC\SRC - Milestones (1969) ]FLAC] {1991 One Way}\03 - Eye Of The Storm.wav

Pre-gap length 0:00:02.29

Peak level 75.2 %
Track quality 100.0 %
Test CRC 84E8E02D
Copy CRC 84E8E02D
Copy OK

Track 4
Filename D:\FLAC\SRC - Milestones (1969) ]FLAC] {1991 One Way}\04 - I Remember Your Face.wav

Pre-gap length 0:00:03.60

Peak level 67.0 %
Track quality 100.0 %
Test CRC B057BDB2
Copy CRC B057BDB2
Copy OK

Track 5
Filename D:\FLAC\SRC - Milestones (1969) ]FLAC] {1991 One Way}\05 - In The Hall Of The Mountain King, Bolero.wav

Pre-gap length 0:00:04.06

Peak level 74.2 %
Track quality 100.0 %
Test CRC BCE61753
Copy CRC BCE61753
Copy OK

Track 6
Filename D:\FLAC\SRC - Milestones (1969) ]FLAC] {1991 One Way}\06 - Checkmate.wav

Pre-gap length 0:00:02.97

Peak level 71.2 %
Track quality 100.0 %
Test CRC 67ABA2CF
Copy CRC 67ABA2CF
Copy OK

Track 7
Filename D:\FLAC\SRC - Milestones (1969) ]FLAC] {1991 One Way}\07 - Our Little Secret.wav

Pre-gap length 0:00:02.93

Peak level 61.6 %
Track quality 100.0 %
Test CRC 0AAFE6A4
Copy CRC 0AAFE6A4
Copy OK

Track 8
Filename D:\FLAC\SRC - Milestones (1969) ]FLAC] {1991 One Way}\08 - Turn Into Love.wav

Pre-gap length 0:00:02.89

Peak level 71.5 %
Track quality 99.9 %
Test CRC 3E044B94
Copy CRC 3E044B94
Copy OK

Track 9
Filename D:\FLAC\SRC - Milestones (1969) ]FLAC] {1991 One Way}\09 - Up All Night.wav

Pre-gap length 0:00:02.93

Peak level 73.0 %
Track quality 100.0 %
Test CRC 8570D32B
Copy CRC 8570D32B
Copy OK

Track 10
Filename D:\FLAC\SRC - Milestones (1969) ]FLAC] {1991 One Way}\10 - The Angel Song.wav

Pre-gap length 0:00:02.56

Peak level 71.9 %
Track quality 100.0 %
Test CRC 8A812953
Copy CRC 8A812953
Copy OK

No errors occured


End of status report


SRC - Milestones (1969) {1991 One Way} **[RE-UP]**