Tags
Language
Tags

Sir Mix-A-Lot - Seminar (1989) {Nastymix}

Posted By: TestTickles
Sir Mix-A-Lot - Seminar (1989) {Nastymix}

Sir Mix-A-Lot - Seminar (1989) {Nastymix}
EAC Rip | FLAC with CUE and log | scans | 259 mb
MP3 CBR 320kbps | RAR | 103 mb
Genre: rap

Seminar is the 1989 second album by Seattle rapper Sir Mix-A-Lot, featuring the hit songs "Beepers", "My Hooptie", "I Got Game" and "National Anthem". This was released by Nastymix Records.

Sir Mix-A-Lot - Seminar (1989) {Nastymix}

01. Seminar (3:48)
02. Beepers (4:17)
03. National Anthem (4:28)
04. My Hooptie (4:46)
05. Gortex (3:47)
06. The (Peek-A-Boo) Game (4:41)
07. I Got Game (4:56)
08. I’ll Roll You Up (4:30)
09. Something About My Benzo (4:31)
10. My Bad Side (4:52)

Exact Audio Copy V1.0 beta 3 from 29. August 2011

EAC extraction logfile from 12. January 2013, 10:24

Sir Mix-A-Lot / Seminar

Used drive : TSSTcorpCDDVDW SH-S222A Adapter: 0 ID: 0

Read mode : Secure
Utilize accurate stream : Yes
Defeat audio cache : Yes
Make use of C2 pointers : No

Read offset correction : 6
Overread into Lead-In and Lead-Out : No
Fill up missing offset samples with silence : Yes
Delete leading and trailing silent blocks : No
Null samples used in CRC calculations : Yes
Used interface : Installed external ASPI interface
Gap handling : Appended to previous track

Used output format : User Defined Encoder
Selected bitrate : 1024 kBit/s
Quality : High
Add ID3 tag : Yes
Command line compressor : C:\Program Files\Exact Audio Copy\Flac\flac.exe
Additional command line options : -8 -V -T "ARTIST=%artist%" -T "TITLE=%title%" -T "ALBUM=%albumtitle%" -T "DATE=%year%" -T "TRACKNUMBER=%tracknr%" -T "GENRE=%genre%" -T "PERFORMER=%albuminterpret%" -T "COMPOSER=%composer%" %haslyrics%–tag-from-file=LYRICS="%lyricsfile%"%haslyrics% -T "ALBUMARTIST=%albumartist%" -T "ALBUM ARTIST=%albumartist%" -T "DISCNUMBER=%cdnumber%" -T "TOTALDISCS=%totalcds%" -T "TOTALTRACKS=%numtracks%" -T "COMMENT=EAC V1.0 beta 2, Secure Mode, Test & Copy, AccurateRip, FLAC -8" %source% -o %dest%


TOC of the extracted CD

Track | Start | Length | Start sector | End sector
––––––––––––––––––––––––––––-
1 | 0:00.00 | 3:47.60 | 0 | 17084
2 | 3:47.60 | 4:17.33 | 17085 | 36392
3 | 8:05.18 | 4:28.15 | 36393 | 56507
4 | 12:33.33 | 4:45.67 | 56508 | 77949
5 | 17:19.25 | 3:46.43 | 77950 | 94942
6 | 21:05.68 | 4:41.12 | 94943 | 116029
7 | 25:47.05 | 4:55.70 | 116030 | 138224
8 | 30:43.00 | 4:30.00 | 138225 | 158474
9 | 35:13.00 | 4:30.50 | 158475 | 178774
10 | 39:43.50 | 4:51.50 | 178775 | 200649


Track 1

Filename C:\cuntfist\FLAC\Sir Mix-A-Lot - Seminar (1989) [FLAC] {Nastymix}\01 - Seminar.wav

Pre-gap length 0:00:02.00

Peak level 95.0 %
Extraction speed 4.9 X
Track quality 100.0 %
Test CRC EA224CB4
Copy CRC EA224CB4
Track not present in AccurateRip database
Copy OK

Track 2

Filename C:\cuntfist\FLAC\Sir Mix-A-Lot - Seminar (1989) [FLAC] {Nastymix}\02 - Beepers.wav

Peak level 75.1 %
Extraction speed 5.5 X
Track quality 100.0 %
Test CRC A6357A85
Copy CRC A6357A85
Track not present in AccurateRip database
Copy OK

Track 3

Filename C:\cuntfist\FLAC\Sir Mix-A-Lot - Seminar (1989) [FLAC] {Nastymix}\03 - National Anthem.wav

Peak level 90.3 %
Extraction speed 5.9 X
Track quality 100.0 %
Test CRC 261CF40B
Copy CRC 261CF40B
Track not present in AccurateRip database
Copy OK

Track 4

Filename C:\cuntfist\FLAC\Sir Mix-A-Lot - Seminar (1989) [FLAC] {Nastymix}\04 - My Hooptie.wav

Peak level 93.7 %
Extraction speed 6.4 X
Track quality 100.0 %
Test CRC 71A3291C
Copy CRC 71A3291C
Track not present in AccurateRip database
Copy OK

Track 5

Filename C:\cuntfist\FLAC\Sir Mix-A-Lot - Seminar (1989) [FLAC] {Nastymix}\05 - Gortex.wav

Peak level 82.5 %
Extraction speed 6.5 X
Track quality 100.0 %
Test CRC E79EDE02
Copy CRC E79EDE02
Track not present in AccurateRip database
Copy OK

Track 6

Filename C:\cuntfist\FLAC\Sir Mix-A-Lot - Seminar (1989) [FLAC] {Nastymix}\06 - The (Peek-A-Boo) Game.wav

Peak level 76.5 %
Extraction speed 5.8 X
Track quality 99.9 %
Test CRC 070DD9F6
Copy CRC 070DD9F6
Track not present in AccurateRip database
Copy OK

Track 7

Filename C:\cuntfist\FLAC\Sir Mix-A-Lot - Seminar (1989) [FLAC] {Nastymix}\07 - I Got Game.wav

Peak level 74.7 %
Extraction speed 7.5 X
Track quality 100.0 %
Test CRC 5FD0A0CE
Copy CRC 5FD0A0CE
Track not present in AccurateRip database
Copy OK

Track 8

Filename C:\cuntfist\FLAC\Sir Mix-A-Lot - Seminar (1989) [FLAC] {Nastymix}\08 - I'll Roll You Up.wav

Peak level 68.8 %
Extraction speed 7.8 X
Track quality 100.0 %
Test CRC F09BDE76
Copy CRC F09BDE76
Track not present in AccurateRip database
Copy OK

Track 9

Filename C:\cuntfist\FLAC\Sir Mix-A-Lot - Seminar (1989) [FLAC] {Nastymix}\09 - Something About My Benzo.wav

Peak level 78.4 %
Extraction speed 8.0 X
Track quality 100.0 %
Test CRC EBFA0F8B
Copy CRC EBFA0F8B
Track not present in AccurateRip database
Copy OK

Track 10

Filename C:\cuntfist\FLAC\Sir Mix-A-Lot - Seminar (1989) [FLAC] {Nastymix}\10 - My Bad Side.wav

Peak level 79.2 %
Extraction speed 8.5 X
Track quality 100.0 %
Test CRC 14C1BA7B
Copy CRC 14C1BA7B
Track not present in AccurateRip database
Copy OK


None of the tracks are present in the AccurateRip database

No errors occurred

End of status report


Sir Mix-A-Lot - Seminar (1989) {Nastymix}


Thank you to the original uploader.