Subcategories
Tags
Language
Tags

Bootsy's New Rubber Band - Blasters Of The Universe (2CD) (1994) {Rykodisc}

Posted By: TestTickles
Bootsy's New Rubber Band - Blasters Of The Universe (2CD) (1994) {Rykodisc}

Bootsy's New Rubber Band - Blasters Of The Universe (2CD) (1994) {Rykodisc}
EAC Rip | FLAC with CUE and log | no scans | 672 mb
MP3 CBR 320kbps | RAR | 267 mb
Genre: soul, funk

Blasters Of The Universe is a 1994 album by William "Bootsy" Collins and his New Rubber Band. This was released by Rykodisc.

This is a library release, so no scans. First disc is the album as is, second disc is alternate takes and a remix or two. "Blasters" is an older track featuring the late Eddie Hazel on guitar.

Bootsy's New Rubber Band - Blasters Of The Universe (2CD) (1994) {Rykodisc}

Disc 1
1. Funk Express Card
2. J.R. (Just Right)
3. Blasters Of The Universe
4. Bad Girls
5. Back N The Day
6. Where R The Children
7. Female Trouble
8. Wide Track
9. Funk Me Dirty
10. Blasters Featuring Eddie Hazel
11. Good Nite Eddie
12. A Sacred Place
13. Half Past Midnight
14. It's A Silly Serious World

Disc 2
1. J. R. (Just Right)
2. Funk Express Card
3. Back 'N' The Day
4. Bad Girls
5. Good Night Eddie
6. Where 'R' The Children
7. Funk Me Dirty
8. It's A Silly Serious World
9. A Sacred Place

EAC extraction logfile from 15. March 2006, 8:38 for CD
Bootsy's New Rubber Band / Blasters Of The Universe (Disc 1)

Used drive : LITE-ON DVDRW SOHW-1633S Adapter: 0 ID: 0
Read mode : Secure with NO C2, accurate stream, disable cache
Read offset correction : 12
Overread into Lead-In and Lead-Out : No

Used output format : Internal WAV Routines
44.100 Hz; 16 Bit; Stereo

Other options :
Fill up missing offset samples with silence : Yes
Delete leading and trailing silent blocks : No
Installed external ASPI interface


Track 1
Filename D:\FLAC\Bootsy's New Rubber Band - Blasters Of The Universe (2CD) (1994) [FLAC] {Rykodisc}\Disc 1\01 - Funk Express Card.wav

Pre-gap length 0:00:02.42

Peak level 77.0 %
Track quality 100.0 %
Test CRC FE690941
Copy CRC FE690941
Copy OK

Track 2
Filename D:\FLAC\Bootsy's New Rubber Band - Blasters Of The Universe (2CD) (1994) [FLAC] {Rykodisc}\Disc 1\02 - J.R. (Just Right).wav

Peak level 90.2 %
Track quality 100.0 %
Test CRC 07325544
Copy CRC 07325544
Copy OK

Track 3
Filename D:\FLAC\Bootsy's New Rubber Band - Blasters Of The Universe (2CD) (1994) [FLAC] {Rykodisc}\Disc 1\03 - Blasters Of The Universe.wav

Peak level 78.4 %
Track quality 100.0 %
Test CRC 6C8C1DD3
Copy CRC 6C8C1DD3
Copy OK

Track 4
Filename D:\FLAC\Bootsy's New Rubber Band - Blasters Of The Universe (2CD) (1994) [FLAC] {Rykodisc}\Disc 1\04 - Bad Girls.wav

Peak level 85.9 %
Track quality 100.0 %
Test CRC 7199ED84
Copy CRC 7199ED84
Copy OK

Track 5
Filename D:\FLAC\Bootsy's New Rubber Band - Blasters Of The Universe (2CD) (1994) [FLAC] {Rykodisc}\Disc 1\05 - Back N The Day.wav

Peak level 92.8 %
Track quality 99.9 %
Test CRC 131AF90E
Copy CRC 131AF90E
Copy OK

Track 6
Filename D:\FLAC\Bootsy's New Rubber Band - Blasters Of The Universe (2CD) (1994) [FLAC] {Rykodisc}\Disc 1\06 - Where R The Children.wav

Peak level 97.0 %
Track quality 100.0 %
Test CRC 1E753D11
Copy CRC 1E753D11
Copy OK

Track 7
Filename D:\FLAC\Bootsy's New Rubber Band - Blasters Of The Universe (2CD) (1994) [FLAC] {Rykodisc}\Disc 1\07 - Female Trouble's (The National Anthem).wav

Peak level 76.8 %
Track quality 100.0 %
Test CRC 22F1581C
Copy CRC 22F1581C
Copy OK

Track 8
Filename D:\FLAC\Bootsy's New Rubber Band - Blasters Of The Universe (2CD) (1994) [FLAC] {Rykodisc}\Disc 1\08 - Wide Track.wav

Peak level 90.6 %
Track quality 100.0 %
Test CRC DCD2941B
Copy CRC DCD2941B
Copy OK

Track 9
Filename D:\FLAC\Bootsy's New Rubber Band - Blasters Of The Universe (2CD) (1994) [FLAC] {Rykodisc}\Disc 1\09 - Funk Me Dirty.wav

Peak level 100.0 %
Track quality 100.0 %
Test CRC AB5985C0
Copy CRC AB5985C0
Copy OK

Track 10
Filename D:\FLAC\Bootsy's New Rubber Band - Blasters Of The Universe (2CD) (1994) [FLAC] {Rykodisc}\Disc 1\10 - Blasters.wav

Peak level 89.4 %
Track quality 100.0 %
Test CRC 8F311E53
Copy CRC 8F311E53
Copy OK

Track 11
Filename D:\FLAC\Bootsy's New Rubber Band - Blasters Of The Universe (2CD) (1994) [FLAC] {Rykodisc}\Disc 1\11 - Good Nite Eddie.wav

Peak level 92.6 %
Track quality 100.0 %
Test CRC 827C490B
Copy CRC 827C490B
Copy OK

Track 12
Filename D:\FLAC\Bootsy's New Rubber Band - Blasters Of The Universe (2CD) (1994) [FLAC] {Rykodisc}\Disc 1\12 - A Sacred Place.wav

Peak level 81.1 %
Track quality 100.0 %
Test CRC 572ECDC3
Copy CRC 572ECDC3
Copy OK

Track 13
Filename D:\FLAC\Bootsy's New Rubber Band - Blasters Of The Universe (2CD) (1994) [FLAC] {Rykodisc}\Disc 1\13 - Half Past Midnight.wav

Peak level 72.0 %
Track quality 100.0 %
Test CRC D4CBBDA7
Copy CRC D4CBBDA7
Copy OK

Track 14
Filename D:\FLAC\Bootsy's New Rubber Band - Blasters Of The Universe (2CD) (1994) [FLAC] {Rykodisc}\Disc 1\14 - It's A Silly Serious World.wav

Peak level 80.9 %
Track quality 100.0 %
Test CRC 1574CF7C
Copy CRC 1574CF7C
Copy OK

No errors occured


End of status report



EAC extraction logfile from 15. March 2006, 9:27 for CD
Bootsy's New Rubber Band / Blasters Of The Universe (Disc 2)

Used drive : LITE-ON DVDRW SOHW-1633S Adapter: 0 ID: 0
Read mode : Secure with NO C2, accurate stream, disable cache
Read offset correction : 12
Overread into Lead-In and Lead-Out : No

Used output format : Internal WAV Routines
44.100 Hz; 16 Bit; Stereo

Other options :
Fill up missing offset samples with silence : Yes
Delete leading and trailing silent blocks : No
Installed external ASPI interface


Track 1
Filename D:\FLAC\Bootsy's New Rubber Band - Blasters Of The Universe (2CD) (1994) [FLAC] {Rykodisc}\Disc 2\01 - J. R. (Just Right).wav

Pre-gap length 0:00:02.42

Peak level 77.0 %
Track quality 100.0 %
Test CRC 300E45E1
Copy CRC 300E45E1
Copy OK

Track 2
Filename D:\FLAC\Bootsy's New Rubber Band - Blasters Of The Universe (2CD) (1994) [FLAC] {Rykodisc}\Disc 2\02 - Funk Express Card.wav

Peak level 80.2 %
Track quality 100.0 %
Test CRC 1E39F9F8
Copy CRC 1E39F9F8
Copy OK

Track 3
Filename D:\FLAC\Bootsy's New Rubber Band - Blasters Of The Universe (2CD) (1994) [FLAC] {Rykodisc}\Disc 2\03 - Back N The Day.wav

Peak level 72.9 %
Track quality 100.0 %
Test CRC F9EA7293
Copy CRC F9EA7293
Copy OK

Track 4
Filename D:\FLAC\Bootsy's New Rubber Band - Blasters Of The Universe (2CD) (1994) [FLAC] {Rykodisc}\Disc 2\04 - Bad Girls.wav

Peak level 75.3 %
Track quality 100.0 %
Test CRC AABECE99
Copy CRC AABECE99
Copy OK

Track 5
Filename D:\FLAC\Bootsy's New Rubber Band - Blasters Of The Universe (2CD) (1994) [FLAC] {Rykodisc}\Disc 2\05 - Good Nite Eddie.wav

Peak level 84.1 %
Track quality 99.9 %
Test CRC B2439E93
Copy CRC B2439E93
Copy OK

Track 6
Filename D:\FLAC\Bootsy's New Rubber Band - Blasters Of The Universe (2CD) (1994) [FLAC] {Rykodisc}\Disc 2\06 - Where Are The Children.wav

Pre-gap length 0:00:06.00

Peak level 99.2 %
Track quality 100.0 %
Test CRC 003DDBCC
Copy CRC 003DDBCC
Copy OK

Track 7
Filename D:\FLAC\Bootsy's New Rubber Band - Blasters Of The Universe (2CD) (1994) [FLAC] {Rykodisc}\Disc 2\07 - Funk Me Dirty.wav

Peak level 100.0 %
Track quality 100.0 %
Test CRC 1076519A
Copy CRC 1076519A
Copy OK

Track 8
Filename D:\FLAC\Bootsy's New Rubber Band - Blasters Of The Universe (2CD) (1994) [FLAC] {Rykodisc}\Disc 2\08 - It's A Silly Serious World.wav

Peak level 97.3 %
Track quality 99.9 %
Test CRC 79152BF3
Copy CRC 79152BF3
Copy OK

Track 9
Filename D:\FLAC\Bootsy's New Rubber Band - Blasters Of The Universe (2CD) (1994) [FLAC] {Rykodisc}\Disc 2\09 - A Sacred Place.wav

Peak level 59.3 %
Track quality 99.9 %
Test CRC 27B30EF0
Copy CRC 27B30EF0
Copy OK

No errors occured


End of status report


Bootsy's New Rubber Band - Blasters Of The Universe (2CD) (1994) {Rykodisc}