Tags
Language
Tags

Bob Saget - That's What I'm Talkin' About (2013) {New Wave Dynamics}

Posted By: TestTickles
Bob Saget - That's What I'm Talkin' About (2013) {New Wave Dynamics}

Bob Saget - That's What I'm Talkin' About (2013) {New Wave Dynamics}
EAC Rip | FLAC with CUE and log | scans | 373 mb
MP3 CBR 320kbps | RAR | 136 mb
Genre: comedy

That's What I'm Talkin' About is the 2013 debut album by comedian and actor Bob Saget, which also features a few musical follies. This was released by New Wave Dynamics.

Bob Saget - That's What I'm Talkin' About (2013) {New Wave Dynamics}

01. Opening Disclaimer
02. Fistbumping
03. I'm Talkin' To You, Son
04. Meeting J-Bone
05. Women And Dogs I Used To Know
06. Easter Below The Belt
07. Titanic 3D
08. My Dad
09. My Mom
10. Tourettes Guy
11. AFV vs. AFHV
12. Diarrhea Can Save Your Life
13. Yet Another Man's Take On Colonoscopy
14. The Donkey On Full House
15. John Stamos And The 8 X 10
16. "I'm Over You"
17. "When I Think Of You
18. "The Girl From The Driftwood Nursing Home"
19. "Butt Plug Made Of Leather"
20. "The Biggest Wiener"

Exact Audio Copy V1.6 from 23. October 2020

EAC extraction logfile from 24. June 2021, 22:28

Bob Saget / That's What I'm Talkin' About

Used drive : HL-DT-STDVD+-RW GT32N Adapter: 1 ID: 0

Read mode : Burst

Read offset correction : 103
Overread into Lead-In and Lead-Out : No
Fill up missing offset samples with silence : Yes
Delete leading and trailing silent blocks : No
Null samples used in CRC calculations : Yes
Used interface : Native Win32 interface for Win NT & 2000
Gap handling : Not detected, thus appended to previous track

Used output format : Internal WAV Routines
Sample format : 44.100 Hz; 16 Bit; Stereo


TOC of the extracted CD

Track | Start | Length | Start sector | End sector
––––––––––––––––––––––––––––-
1 | 0:00.00 | 3:11.00 | 0 | 14324
2 | 3:11.00 | 2:40.00 | 14325 | 26324
3 | 5:51.00 | 3:16.00 | 26325 | 41024
4 | 9:07.00 | 2:23.28 | 41025 | 51777
5 | 11:30.28 | 2:46.65 | 51778 | 64292
6 | 14:17.18 | 2:17.40 | 64293 | 74607
7 | 16:34.58 | 1:45.06 | 74608 | 82488
8 | 18:19.64 | 3:36.39 | 82489 | 98727
9 | 21:56.28 | 1:39.61 | 98728 | 106213
10 | 23:36.14 | 1:12.25 | 106214 | 111638
11 | 24:48.39 | 1:28.57 | 111639 | 118295
12 | 26:17.21 | 1:18.09 | 118296 | 124154
13 | 27:35.30 | 3:08.20 | 124155 | 138274
14 | 30:43.50 | 3:12.71 | 138275 | 152745
15 | 33:56.46 | 3:30.45 | 152746 | 168540
16 | 37:27.16 | 4:49.67 | 168541 | 190282
17 | 42:17.08 | 1:59.49 | 190283 | 199256
18 | 44:16.57 | 2:14.18 | 199257 | 209324
19 | 46:31.00 | 3:23.48 | 209325 | 224597
20 | 49:54.48 | 3:38.25 | 224598 | 240972


Track 1

Filename C:\cuntfist\FLAC\Bob Saget - That's What I'm Talkin' About (2013) [FLAC] {New Wave Dynamics}\01 - Opening Disclaimer.wav

Peak level 98.8 %
Extraction speed 4.6 X
Test CRC B3F23ECD
Copy CRC B3F23ECD
Accurately ripped (confidence 4) [6EA9D16E] (AR v2)
Copy OK

Track 2

Filename C:\cuntfist\FLAC\Bob Saget - That's What I'm Talkin' About (2013) [FLAC] {New Wave Dynamics}\02 - Fistbumping.wav

Peak level 98.9 %
Extraction speed 5.0 X
Test CRC 6DF20936
Copy CRC 6DF20936
Accurately ripped (confidence 4) [FD738B3B] (AR v2)
Copy OK

Track 3

Filename C:\cuntfist\FLAC\Bob Saget - That's What I'm Talkin' About (2013) [FLAC] {New Wave Dynamics}\03 - I'm Talkin' To You, Son.wav

Peak level 98.8 %
Extraction speed 5.3 X
Test CRC 382CB74D
Copy CRC 382CB74D
Accurately ripped (confidence 4) [9E37E973] (AR v2)
Copy OK

Track 4

Filename C:\cuntfist\FLAC\Bob Saget - That's What I'm Talkin' About (2013) [FLAC] {New Wave Dynamics}\04 - Meeting J-Bone.wav

Peak level 98.8 %
Extraction speed 5.7 X
Test CRC DAE14E41
Copy CRC DAE14E41
Accurately ripped (confidence 4) [61C5C1D0] (AR v2)
Copy OK

Track 5

Filename C:\cuntfist\FLAC\Bob Saget - That's What I'm Talkin' About (2013) [FLAC] {New Wave Dynamics}\05 - Women And Dogs I Used To Know.wav

Peak level 98.9 %
Extraction speed 5.3 X
Test CRC F521E5CD
Copy CRC F521E5CD
Accurately ripped (confidence 4) [7B61DB56] (AR v2)
Copy OK

Track 6

Filename C:\cuntfist\FLAC\Bob Saget - That's What I'm Talkin' About (2013) [FLAC] {New Wave Dynamics}\06 - Easter Below The Belt.wav

Peak level 98.8 %
Extraction speed 6.3 X
Test CRC 9B111E0A
Copy CRC 9B111E0A
Accurately ripped (confidence 4) [C7CC7846] (AR v2)
Copy OK

Track 7

Filename C:\cuntfist\FLAC\Bob Saget - That's What I'm Talkin' About (2013) [FLAC] {New Wave Dynamics}\07 - Titanic 3D.wav

Peak level 98.8 %
Extraction speed 6.5 X
Test CRC 2CFE9CB4
Copy CRC 2CFE9CB4
Accurately ripped (confidence 4) [9885E15E] (AR v2)
Copy OK

Track 8

Filename C:\cuntfist\FLAC\Bob Saget - That's What I'm Talkin' About (2013) [FLAC] {New Wave Dynamics}\08 - My Dad.wav

Peak level 98.8 %
Extraction speed 6.8 X
Test CRC D91F358A
Copy CRC D91F358A
Accurately ripped (confidence 4) [FE26F2EF] (AR v2)
Copy OK

Track 9

Filename C:\cuntfist\FLAC\Bob Saget - That's What I'm Talkin' About (2013) [FLAC] {New Wave Dynamics}\09 - My Mom.wav

Peak level 98.8 %
Extraction speed 7.0 X
Test CRC 1D8F54AB
Copy CRC 1D8F54AB
Accurately ripped (confidence 4) [418EBD2C] (AR v2)
Copy OK

Track 10

Filename C:\cuntfist\FLAC\Bob Saget - That's What I'm Talkin' About (2013) [FLAC] {New Wave Dynamics}\10 - Tourettes Guy.wav

Peak level 98.8 %
Extraction speed 7.1 X
Test CRC 83B0E01E
Copy CRC 83B0E01E
Accurately ripped (confidence 4) [6C987F0D] (AR v2)
Copy OK

Track 11

Filename C:\cuntfist\FLAC\Bob Saget - That's What I'm Talkin' About (2013) [FLAC] {New Wave Dynamics}\11 - AFV vs. AFHV.wav

Peak level 98.8 %
Extraction speed 7.2 X
Test CRC C8C66C2E
Copy CRC C8C66C2E
Accurately ripped (confidence 4) [A038E281] (AR v2)
Copy OK

Track 12

Filename C:\cuntfist\FLAC\Bob Saget - That's What I'm Talkin' About (2013) [FLAC] {New Wave Dynamics}\12 - Diarrhea Can Save Your Life.wav

Peak level 98.8 %
Extraction speed 7.3 X
Test CRC 17DF0A83
Copy CRC 17DF0A83
Accurately ripped (confidence 4) [1D02203B] (AR v2)
Copy OK

Track 13

Filename C:\cuntfist\FLAC\Bob Saget - That's What I'm Talkin' About (2013) [FLAC] {New Wave Dynamics}\13 - Yet Another Man's Take On Colonoscopy.wav

Peak level 98.8 %
Extraction speed 7.6 X
Test CRC EC658842
Copy CRC EC658842
Accurately ripped (confidence 4) [16D4BB9C] (AR v2)
Copy OK

Track 14

Filename C:\cuntfist\FLAC\Bob Saget - That's What I'm Talkin' About (2013) [FLAC] {New Wave Dynamics}\14 - The Donkey On Full House.wav

Peak level 98.9 %
Extraction speed 7.8 X
Test CRC 54A36FE1
Copy CRC 54A36FE1
Accurately ripped (confidence 4) [2660C258] (AR v2)
Copy OK

Track 15

Filename C:\cuntfist\FLAC\Bob Saget - That's What I'm Talkin' About (2013) [FLAC] {New Wave Dynamics}\15 - John Stamos And The 8 X 10.wav

Peak level 98.9 %
Extraction speed 8.1 X
Test CRC 7CE9A6D8
Copy CRC 7CE9A6D8
Accurately ripped (confidence 4) [AA6DC37A] (AR v2)
Copy OK

Track 16

Filename C:\cuntfist\FLAC\Bob Saget - That's What I'm Talkin' About (2013) [FLAC] {New Wave Dynamics}\16 - ''I'm Over You''.wav

Peak level 98.8 %
Extraction speed 8.4 X
Test CRC 9930BF79
Copy CRC 9930BF79
Accurately ripped (confidence 4) [34E23213] (AR v2)
Copy OK

Track 17

Filename C:\cuntfist\FLAC\Bob Saget - That's What I'm Talkin' About (2013) [FLAC] {New Wave Dynamics}\17 - ''When I Think Of You.wav

Peak level 98.8 %
Extraction speed 8.7 X
Test CRC 71B6944A
Copy CRC 71B6944A
Accurately ripped (confidence 4) [6AB32725] (AR v2)
Copy OK

Track 18

Filename C:\cuntfist\FLAC\Bob Saget - That's What I'm Talkin' About (2013) [FLAC] {New Wave Dynamics}\18 - ''The Girl From The Driftwood Nursing Home''.wav

Peak level 98.8 %
Extraction speed 8.8 X
Test CRC 402482AA
Copy CRC 402482AA
Accurately ripped (confidence 4) [CAA5B45E] (AR v2)
Copy OK

Track 19

Filename C:\cuntfist\FLAC\Bob Saget - That's What I'm Talkin' About (2013) [FLAC] {New Wave Dynamics}\19 - ''Butt Plug Made Of Leather''.wav

Peak level 98.9 %
Extraction speed 9.0 X
Test CRC AE0C69C0
Copy CRC AE0C69C0
Accurately ripped (confidence 4) [20DFBDED] (AR v2)
Copy OK

Track 20

Filename C:\cuntfist\FLAC\Bob Saget - That's What I'm Talkin' About (2013) [FLAC] {New Wave Dynamics}\20 - ''The Biggest Wiener''.wav

Timing problem 0:01:03

Peak level 98.8 %
Extraction speed 9.3 X
Test CRC 20F922CD
Copy CRC 20F922CD
Accurately ripped (confidence 4) [538AA4D1] (AR v2)
Copy finished


All tracks accurately ripped

No errors occurred

End of status report

–– CUETools DB Plugin V2.1.6

[CTDB TOCID: iNU3A5N.whdSe5bqsBwEOrTmZS8-] found
Submit result: iNU3A5N.whdSe5bqsBwEOrTmZS8- has been confirmed
Track | CTDB Status
1 | (7/7) Accurately ripped
2 | (7/7) Accurately ripped
3 | (7/7) Accurately ripped
4 | (7/7) Accurately ripped
5 | (7/7) Accurately ripped
6 | (7/7) Accurately ripped
7 | (7/7) Accurately ripped
8 | (7/7) Accurately ripped
9 | (7/7) Accurately ripped
10 | (7/7) Accurately ripped
11 | (7/7) Accurately ripped
12 | (7/7) Accurately ripped
13 | (7/7) Accurately ripped
14 | (7/7) Accurately ripped
15 | (7/7) Accurately ripped
16 | (7/7) Accurately ripped
17 | (7/7) Accurately ripped
18 | (7/7) Accurately ripped
19 | (7/7) Accurately ripped
20 | (7/7) Accurately ripped


==== Log checksum D416EE67371353C329956F060C49565526129686C8AF83C84C7FEEC93B8189A8 ====


Bob Saget - That's What I'm Talkin' About (2013) {New Wave Dynamics}