Tags
Language
Tags

808 State - 808: 88: 98 - 10 Years Of 808 State (1998)

Posted By: JET 1
808 State - 808: 88: 98 - 10 Years Of 808 State (1998)

808 State - 808: 88: 98 - 10 Years Of 808 State (1998)
EAC Rip | FLAC (Tracks) +CUE, LOG | 586 MB | Scans
Genre: Techno, Acid House, Future Jazz | Label: ZTT Records | Catalog Number: ZTT100CD

Celebrating, as the title hints at, ten years of work together, 808:88:98 makes the brilliant case for 808 State's place as a modern techno pioneer. Time has shown that while a rougher breakbeat approach ended up defining much of dance in the broad public eye during the '90s, 808 State's own slightly cleaner approach was no less energetic and instantly compelling. Starting with the hyperactive shimmer and smooth flow of "Pacific," an instant trip back to the acid house days of the late '80s, 808:88:98 merrily makes its way through the years, touching on both the smash hits and some side diversions. The guitar mania and prototypical synth riff blare of "Cubik" provides the second blast, while both tunes reappear at the end in 1998 remixes. 808 State practically invented the "famous guest vocalist" cameo in techno and a slew of its various collaborations are sprinkled throughout. Bernard Sumner and Ian McCulloch aren't included, while regretfully the resolutely unspectacular MC Tunes is ("The Only Rhyme That Bites" isn't even much musically), but otherwise it's a feast of choices. Björk's playfully dark spin on "Ooops" (the clear harbinger of her eventual solo career), the Manic Street Preachers' James Dean Bradfield's winsome turn on "Lopez," and even UB40's work on "One in Ten" all make for reasonable crossover winners, though Lamb's Louise Rhodes steals the show with "Azura." For all that, the group's own work stands out most of all, from the threatening vocal snippets and drum slams of "In Yer Face" to the multi-percussive clatter and charge of "Bombadin." An appreciative essay makes the case for the band's landmark work and broad appeal, among other things noting that 808 State played for American crowds numbering in the thousands well before the major labels thought techno even existed.

Exact Audio Copy V0.99 prebeta 5 from 4. May 2009

EAC extraction logfile from 23. January 2010, 2:15

808 State / 808_88-98

Used drive: LITE-ON DVDRW SOHW-1633S Adapter: 0 ID: 0

Read mode: Secure
Utilize accurate stream: Yes
Defeat audio cache: Yes
Make use of C2 pointers: No

Read offset correction: 12
Overread into Lead-In and Lead-Out: No
Fill up missing offset samples with silence: Yes
Delete leading and trailing silent blocks: No
Null samples used in CRC calculations: Yes
Used interface: Native Win32 interface for Win NT & 2000
Gap handling: Appended to previous track

Used output format: User Defined Encoder
Selected bitrate: 768 kBit / s
Quality: High
Add ID3 tag: No
Command line compressor: C: \ Program \ Exact Audio Copy \ Flac \ flac.exe
Additional command line options: -V -8 - T "artist =% a" -T "title =% t" -T "album =% g" -T "date =% y" -T "tracknumber =% n" -T "genre =% m" -T " comment = EAC FLAC -8 "% s

TOC of the extracted CD

Track | Start | Length | Start sector | End sector
–––––––––––––––––––––––– ––––-
1 | 0: 00.00 | 3: 54.03 | 0 | 17552
2 | 3: 54.03 | 3: 33.41 | 17553 | 33568
3 | 7: 27.44 | 6: 19.48 | 33569 | 62041
4 | 13: 47.17 | 3: 56.06 | 62042 | 79747
5 | 17: 43.23 | 4: 18.34 | 79748 | 99131
6 | 22: 01.57 | 4: 09.70 | 99132 | 117876
7 | 26: 11.52 | 4: 44.33 | 117877 | 139209
8 | 30: 56.10 | 5: 12.64 | 139210 | 162673
9 | 36: 08.74 | 2: 42.38 | 162674 | 174861
10 | 38: 51.37 | 4: 01.57 | 174862 | 192993
11 | 42: 53.19 | 3: 33.51 | 192994 | 209019
12 | 46: 26.70 | 4: 44.61 | 209020 | 230380
13 | 51: 11.56 | 5: 07.35 | 230381 | 253440
14 | 56: 19.16 | 5: 44.53 | 253441 | 279293
15 | 62: 03.69 | 4: 31.27 | 279294 | 299645
16 | 66: 35.21 | 5: 12.14 | 299646 | 323059
17 | 71: 47.35 | 5: 57.38 | 323060 | 349872

Track 1

Filename F: \ Music \ 01 - Pacific 707.wav

Pre-gap length 0: 00: 02.00

Peak level 95.1%
Track quality 100.0%
Test CRC E2360195
Copy CRC E2360195
Cannot be verified as accurate (confidence 4) [AAEB097C], AccurateRip returned [3855392A]
Copy OK

Track 2

Filename F: \ Music \ 02 - Cubik.wav

Peak level 91.9%
Track quality 100.0%
Test CRC F17C6C6F
Copy CRC F17C6C6F
Cannot be verified as accurate (confidence 4) [68B3B7DE], AccurateRip returned [3A0FB7DB]
Copy OK

Track 3

Filename F: \ Music \ 03 - Cobra Bora.wav

Peak level 95.1%
Track quality 100.0%
Test CRC 3FC52157
Copy CRC 3FC52157
Cannot be verified as accurate (confidence 4) [94EC586B], AccurateRip returned [F167400C]
Copy OK

Track 4

Filename F: \ Music \ 04 - In Yer Face.wav

Pre-gap length 0: 00: 02.36

Peak level 95.1%
Track quality 99.9%
Test CRC 8CEF9F80
Copy CRC 8CEF9F80
Cannot be verified as accurate (confidence 4) [576E55E6], AccurateRip returned [2D9D1CFA]
Copy OK

Track 5

Filename F: \ Music \ 05 - The Only Rhyme That Bites (Extended Mix) .wav

Pre-gap length 0: 00: 02.09

Peak level 90.8%
Track quality 100.0%
Test CRC 47A5E40C
Copy CRC 47A5E40C
Cannot be verified as accurate (confidence 4) [FDEF5B3A], AccurateRip returned [54EA1BEA]
Copy OK

Track 6

Filename F: \ Music \ 06 - Olympic (Flutey Mix) .wav

Pre-gap length 0: 00: 01.22

Peak level 95.1%
Track quality 100.0%
Test CRC AC6D6C44
Copy CRC AC6D6C44
Cannot be verified as accurate (confidence 4) [046831AF], AccurateRip returned [9BBAC263]
Copy OK

Track 7

Filename F: \ Music \ 07 - Ooops.wav

Pre-gap length 0: 00: 01.00

Peak level 95.1%
Track quality 100.0%
Test CRC 3018A151
Copy CRC 3018A151
Cannot be verified as accurate (confidence 4) [C7053E8E], AccurateRip returned [FB30174E]
Copy OK

Track 8

Filename F: \ Music \ 08 - Lift (EX_EL Mix) .wav

Pre-gap length 0: 00: 01.71

Peak level 96.2%
Track quality 100.0%
Test CRC AFB9E18D
Copy CRC AFB9E18D
Cannot be verified as accurate (confidence 4) [8D2EE88C], AccurateRip returned [65B88EE9]
Copy OK

Track 9

Filename F: \ Music \ 09 - One In Ten.wav

Peak level 99.6%
Track quality 100.0%
Test CRC 27793742
Copy CRC 27793742
Cannot be verified as accurate (confidence 4) [835A27F1], AccurateRip returned [85DC6362]
Copy OK

Track 10

Filename F: \ Music \ 10 - Plan 9 (LP Mix) .wav

Pre-gap length 0: 00: 01.54

Peak level 95.1%
Track quality 99.9%
Test CRC F57161A2
Copy CRC F57161A2
Cannot be verified as accurate (confidence 4) [39A64AF5], AccurateRip returned [1706574E]
Copy OK

Track 11

Filename F: \ Music \ 11 - 10 x 10 (Gorgeous Mix) .wav

Peak level 95.1%
Track quality 100.0%
Test CRC 953D8294
Copy CRC 953D8294
Cannot be verified as accurate (confidence 4) [93F2874A], AccurateRip returned [81AF346C]
Copy OK

Track 12

Filename F: \ Music \ 12 - Bombadin (Quica Mix) .wav

Peak level 99.6%
Track quality 100.0%
Test CRC 94EB8C15
Copy CRC 94EB8C15
Cannot be verified as accurate (confidence 4) [82630200], AccurateRip returned [84A64231]
Copy OK

Track 13

Filename F: \ Music \ 13 - Bond.wav

Pre-gap length 0: 00: 01.24

Peak level 95.1%
Track quality 99.9%
Test CRC FB14E13C
Copy CRC FB14E13C
Cannot be verified as accurate (confidence 4) [BA2509CE], AccurateRip returned [A6B549C2]
Copy OK

Track 14

Filename F: \ Music \ 14 - Azura.wav

Pre-gap length 0: 00: 01.11

Peak level 90.4%
Track quality 99.8%
Test CRC 9DAA9983
Copy CRC 9DAA9983
Cannot be verified as accurate (confidence 4) [EC1D12BD], AccurateRip returned [6CB6C3B7]
Copy OK

Track 15

Filename F: \ Music \ 15 - Lopez.wav

Pre-gap length 0: 00: 00.23

Peak level 91.0%
Track quality 100.0%
Test CRC EA2F8F3E
Copy CRC EA2F8F3E
Cannot be verified as accurate (confidence 4) [C35BB3F7], AccurateRip returned [132D29F0]
Copy OK

Track 16

Filename F: \ Music \ 16 - Crash.wav

Peak level 99.6%
Track quality 100.0%
Test CRC EFD66AB7
Copy CRC EFD66AB7
Cannot be verified as accurate (confidence 4) [25683569], AccurateRip returned [5DF7AFF8]
Copy OK

Track 17

Filename F: \ Music \ 17 - Pacific (808_98) .wav

Pre-gap length 0: 00: 01.40

Peak level 95.1%
Track quality 100.0%
Test CRC BB466334
Copy CRC BB466334
Cannot be verified as accurate (confidence 4) [62015B3F], AccurateRip returned [B7333BF3]
Copy OK

No tracks could be verified as accurate
You may have a different pressing from the one (s) in the database

No errors occurred

End of status report

Tracklist :::
01. Pacific 707 (3:54)
02. Cubik (3:34)
03. Cobra Bora (6:20)
04. In Yer Face (3:56)
05. Of The Only Rhyme That Bites (the Extended Mix) (4:18)
06. Of Olympic (Flutey Mix) (4:10)
07. by Ooops (4:44)
08. Lift ( Mix EX_EL) (5:13)
09. One In Ten (2:43)
10. Plan 9 (LP Mix) (4:02)
11. 10 x 10 (Gorgeous Mix) ( 3:34)
12. Bombadin (Quica Mix) (4:45)
13. Bond (5:07)
14. Azura (5:45)
15. Lopez (4:31)
16. Crash (5:12)
17. Pacific (808_98) (5:58)