Subcategories

The Residents - 80 Aching Orphans: 45 Years Of The Residents Hardback Book (2017)

Posted By: SERTiL
The Residents - 80 Aching Orphans: 45 Years Of The Residents Hardback Book (2017)

The Residents - 80 Aching Orphans: 45 Years Of The Residents Hardback Book
EAC Rip | FLAC (tracks)+cue, log | 273:41 min | 1.50 GB
Label: Cherry Red Records – NRTBOX1 | Tracks: 80 | Rls.date: 2017
Experimental, Avant-Garde, Electronic, Post-Punk

Extended, 4CD anthology set chronicling the career of the legendary San Francisco experimentalists and curated with the band themselves, from the debut 1972 single to the band's most recent album, The Ghost Of Hope. Singles, fan favourites, album highlights, live recordings and material never before available on CD. Detailed track-by-track sleevenotes, new imagery produced exclusively for this collection and an introduction from Homer Flynn of The Cryptic Corporation. 80 tracks across 4CDs, presented in hardback book package. Includes Santa Dog, Satisfaction, Constantinople, Diskomo, It's a Man's, Man's, Man's World, Hit The Road Jack, Don't Be Cruel, Hello Skinny, Smelly Tongues, Jello Jack, Rushing Like A Banshee, plus material from numerous classic albums. An ideal introduction for the curious, and a fresh perspective for the band's dedicated fanbase. Since 1972, The Residents have produced a remarkable run of singles, classic albums and off-the-wall projects defying categorisation. Produced with The Cryptic Corporation, this is The Residents as they've never been heard before. Includes rare recordings, live versions and exclusive extracts and edits, and is packed with photographs and insightful commentary. The Residents' most recent album, The Ghost Of Hope, received critical acclaim and proved their appetite for innovation and musical exploration hasn't diminished, forty five years after their first release. Extensive promotion across social media - The Residents have approximately 100K followers at facebook.com/TheOfficialResidents and a dedicated fanbase across the world. We also expect excellent print media coverage - comment from the artists and all relevant imagery and information is available by request. The Residents will soon embark on the 'pREServed' archival album reissue series, including previously unheard material, b-sides, rare recordings and extensive sleevenotes.

Tracklist:

Disc:1
01. Fire (Santa Dog) 01:45
02. Amber 01:03
03. Semolina 02:50
04. This is a Man's Man's Man's World 03:42
05. Diskomo (Edit) 04:32
06. Monkey and Bunny 04:59
07. Jello Jack the Boneless Boy 05:55
08. You Yesyesyes 03:01
09. Double Shot 03:52
10. Rushing Like a Banshee 02:09
11. On the Way (To Oklahoma) 04:06
12. Blue Rosebuds 03:10
13. From the Plains to Mexico (Italian Mix) 03:27
14. I'll Go Crazy 01:43
15. Almost Perfect 04:05
16. Eloise 01:19
17. Moisture 01:03
18. There's Blood on the Bunny (Thoreau Mix) 03:58
19. Shortnin' Bread 01:39
20. Burn Baby Burn 02:59
21. The Car Thief 03:56
22. Squeaky Wheels 03:08

Disc:2
23. Kaw-Liga (Prairie Mix) 09:31
24. Yummy Yummy Yummy 01:35
25. In San Francisco 02:04
26. Constantinople 02:24
27. Jailhouse Rock 03:07
28. Where is She' 01:04
29. Easter Woman (Live) 02:31
30. Insincere 02:06
31. Hard and Tenderly 04:38
32. Migration 07:05
33. Satisfaction 04:32
34. Kamikaze Lady 01:40
35. Burning Love (Live TV Version) 03:48
36. The Aging Musician 04:34
37. Six More Miles 05:41
38. The Simple Song 01:03
39. Safety is a Cootie Wootie 04:03
40. Tourniquet of Roses 02:58
41. The Angry Angakok 05:01

Disc:3
42. A Maze of Jigsaws 02:50
43. Beyond the Valley of a Day in the Life 03:55
44. The Mad Sawmill of Copenhagen, 02:43
45. Jambalaya 04:45
46. Cry for the Fire 05:51
47. Smelly Tongues (Mono) 01:46
48. Santa Dog '78 01:52
49. Floating Down the Nile Pt. 2 05:00
50. The Marvels of Mayhem 03:23
51. Earth vs the Flying Saucers 00:53
52. Hello Skinny 02:41
53. The Monkey Man 04:02
54. Mahogany Wood 04:13
55. Edweena (Extract) 04:48
56. Melon Collie Lassie 02:57
57. The Sleepwalker 03:25
58. The Knife Fight 08:52

Disc:4
59. Holy Kiss of Flesh (Edit) 08:02
60. Loser Weed 02:12
61. Blue Tongues 03:38
62. Boots 00:56
63. Susie Smiles 02:16
64. Perfect Love 01:03
65. Hit the Road Jack (Remix) 03:57
66. Bach is Dead 01:13
67. 96 Tears 00:58
68. Ship's A'going Down (Extract) 02:22
69. The Black Behind 04:43
70. I Hate Heaven 02:53
71. Semper Fidelis 02:35
72. Don't Be Cruel 02:58
73. Matchmaker 03:15
74. Would We Be Alive 05:12
75. Daydream Believer 02:56
76. Shroud of Flames 05:28
77. Catatonia 02:47
78. Pollex Christi Pt. 4 02:17
79. Hunters Concentrate 03:44
80. Life Would Be Wonderful (Live in Oslo) 06:40

Exact Audio Copy V1.0 beta 4 from 7. December 2014

EAC extraction logfile from 9. October 2017, 22:00

The Residents / 80 Aching Orphans

Used drive : ASUS DRW-24B1ST c Adapter: 1 ID: 0

Read mode : Secure
Utilize accurate stream : Yes
Defeat audio cache : Yes
Make use of C2 pointers : No

Read offset correction : 6
Overread into Lead-In and Lead-Out : No
Fill up missing offset samples with silence : Yes
Delete leading and trailing silent blocks : No
Null samples used in CRC calculations : Yes
Used interface : Native Win32 interface for Win NT & 2000
Gap handling : Appended to previous track

Used output format : User Defined Encoder
Selected bitrate : 1024 kBit/s
Quality : High
Add ID3 tag : No
Command line compressor : C:\Program Files (x86)\Exact Audio Copy\Flac\flac.exe
Additional command line options : -8 -V -T "ARTIST=%artist%" -T "TITLE=%title%" -T "ALBUM=%albumtitle%" -T "DATE=%year%" -T "TRACKNUMBER=%tracknr%" -T "GENRE=%genre%" -T "PERFORMER=%albuminterpret%" -T "COMPOSER=%composer%" %haslyrics%–tag-from-file=LYRICS="%lyricsfile%"%haslyrics% -T "ALBUMARTIST=%albumartist%" -T "DISCNUMBER=%cdnumber%" -T "TOTALDISCS=%totalcds%" -T "TOTALTRACKS=%numtracks%" -T "COMMENT=%comment%" %source% -o %dest%


TOC of the extracted CD

Track | Start | Length | Start sector | End sector
––––––––––––––––––––––––––––-
1 | 0:00.00 | 1:45.34 | 0 | 7908
2 | 1:45.34 | 1:03.49 | 7909 | 12682
3 | 2:49.08 | 2:50.06 | 12683 | 25438
4 | 5:39.14 | 3:42.28 | 25439 | 42116
5 | 9:21.42 | 4:32.41 | 42117 | 62557
6 | 13:54.08 | 4:59.42 | 62558 | 85024
7 | 18:53.50 | 5:55.40 | 85025 | 111689
8 | 24:49.15 | 3:01.40 | 111690 | 125304
9 | 27:50.55 | 3:52.36 | 125305 | 142740
10 | 31:43.16 | 2:09.12 | 142741 | 152427
11 | 33:52.28 | 4:06.18 | 152428 | 170895
12 | 37:58.46 | 3:10.23 | 170896 | 185168
13 | 41:08.69 | 3:27.50 | 185169 | 200743
14 | 44:36.44 | 1:43.17 | 200744 | 208485
15 | 46:19.61 | 4:05.28 | 208486 | 226888
16 | 50:25.14 | 1:19.15 | 226889 | 232828
17 | 51:44.29 | 1:03.52 | 232829 | 237605
18 | 52:48.06 | 3:58.17 | 237606 | 255472
19 | 56:46.23 | 1:39.51 | 255473 | 262948
20 | 58:25.74 | 2:59.44 | 262949 | 276417
21 | 61:25.43 | 3:56.12 | 276418 | 294129
22 | 65:21.55 | 3:08.69 | 294130 | 308298


Track 1

Filename Z:\Music\The Residents - 2017 - 80 Aching Orphans - 45 Years of The Residents\Disk 1\01 - Fire (Santa Dog).wav

Pre-gap length 0:00:02.00

Peak level 90.1 %
Extraction speed 4.1 X
Track quality 100.0 %
Test CRC BB29BEC4
Copy CRC BB29BEC4
Track not present in AccurateRip database
Copy OK

Track 2

Filename Z:\Music\The Residents - 2017 - 80 Aching Orphans - 45 Years of The Residents\Disk 1\02 - Amber.wav

Pre-gap length 0:00:01.29

Peak level 92.0 %
Extraction speed 3.6 X
Track quality 100.0 %
Test CRC 5F749481
Copy CRC 5F749481
Track not present in AccurateRip database
Copy OK

Track 3

Filename Z:\Music\The Residents - 2017 - 80 Aching Orphans - 45 Years of The Residents\Disk 1\03 - Semolina.wav

Pre-gap length 0:00:02.07

Peak level 94.5 %
Extraction speed 5.0 X
Track quality 100.0 %
Test CRC BBA3E7B2
Copy CRC BBA3E7B2
Track not present in AccurateRip database
Copy OK

Track 4

Filename Z:\Music\The Residents - 2017 - 80 Aching Orphans - 45 Years of The Residents\Disk 1\04 - This is a Man's Man's Man's World.wav

Pre-gap length 0:00:01.58

Peak level 92.8 %
Extraction speed 5.5 X
Track quality 100.0 %
Test CRC D0008F39
Copy CRC D0008F39
Track not present in AccurateRip database
Copy OK

Track 5

Filename Z:\Music\The Residents - 2017 - 80 Aching Orphans - 45 Years of The Residents\Disk 1\05 - Diskomo (Edit).wav

Pre-gap length 0:00:01.33

Peak level 94.5 %
Extraction speed 5.2 X
Track quality 99.9 %
Test CRC FA00FEBB
Copy CRC FA00FEBB
Track not present in AccurateRip database
Copy OK

Track 6

Filename Z:\Music\The Residents - 2017 - 80 Aching Orphans - 45 Years of The Residents\Disk 1\06 - Monkey and Bunny.wav

Pre-gap length 0:00:01.65

Peak level 94.5 %
Extraction speed 6.6 X
Track quality 100.0 %
Test CRC C886DC74
Copy CRC C886DC74
Track not present in AccurateRip database
Copy OK

Track 7

Filename Z:\Music\The Residents - 2017 - 80 Aching Orphans - 45 Years of The Residents\Disk 1\07 - Jello Jack the Boneless Boy.wav

Pre-gap length 0:00:01.32

Peak level 88.2 %
Extraction speed 6.3 X
Track quality 99.9 %
Test CRC C401458D
Copy CRC C401458D
Track not present in AccurateRip database
Copy OK

Track 8

Filename Z:\Music\The Residents - 2017 - 80 Aching Orphans - 45 Years of The Residents\Disk 1\08 - You Yesyesyes.wav

Pre-gap length 0:00:01.37

Peak level 88.4 %
Extraction speed 7.0 X
Track quality 100.0 %
Test CRC 254AB556
Copy CRC 254AB556
Track not present in AccurateRip database
Copy OK

Track 9

Filename Z:\Music\The Residents - 2017 - 80 Aching Orphans - 45 Years of The Residents\Disk 1\09 - Double Shot.wav

Pre-gap length 0:00:01.22

Peak level 94.5 %
Extraction speed 7.6 X
Track quality 100.0 %
Test CRC 548ADF41
Copy CRC 548ADF41
Track not present in AccurateRip database
Copy OK

Track 10

Filename Z:\Music\The Residents - 2017 - 80 Aching Orphans - 45 Years of The Residents\Disk 1\10 - Rushing Like a Banshee.wav

Pre-gap length 0:00:01.47

Peak level 94.5 %
Extraction speed 5.1 X
Track quality 99.9 %
Test CRC 1C30A3D1
Copy CRC 1C30A3D1
Track not present in AccurateRip database
Copy OK

Track 11

Filename Z:\Music\The Residents - 2017 - 80 Aching Orphans - 45 Years of The Residents\Disk 1\11 - On the Way (To Oklahoma).wav

Pre-gap length 0:00:01.04

Peak level 94.5 %
Extraction speed 8.1 X
Track quality 100.0 %
Test CRC C7793432
Copy CRC C7793432
Track not present in AccurateRip database
Copy OK

Track 12

Filename Z:\Music\The Residents - 2017 - 80 Aching Orphans - 45 Years of The Residents\Disk 1\12 - Blue Rosebuds.wav

Pre-gap length 0:00:02.13

Peak level 84.5 %
Extraction speed 8.1 X
Track quality 100.0 %
Test CRC A152E626
Copy CRC A152E626
Track not present in AccurateRip database
Copy OK

Track 13

Filename Z:\Music\The Residents - 2017 - 80 Aching Orphans - 45 Years of The Residents\Disk 1\13 - From the Plains to Mexico (Italian Mix).wav

Pre-gap length 0:00:02.16

Peak level 74.7 %
Extraction speed 8.4 X
Track quality 100.0 %
Test CRC 81B1F48B
Copy CRC 81B1F48B
Track not present in AccurateRip database
Copy OK

Track 14

Filename Z:\Music\The Residents - 2017 - 80 Aching Orphans - 45 Years of The Residents\Disk 1\14 - I'll Go Crazy.wav

Pre-gap length 0:00:01.56

Peak level 94.5 %
Extraction speed 5.1 X
Track quality 99.8 %
Test CRC 1D02E23F
Copy CRC 1D02E23F
Track not present in AccurateRip database
Copy OK

Track 15

Filename Z:\Music\The Residents - 2017 - 80 Aching Orphans - 45 Years of The Residents\Disk 1\15 - Almost Perfect.wav

Peak level 94.5 %
Extraction speed 7.3 X
Track quality 99.9 %
Test CRC 659AB952
Copy CRC 659AB952
Track not present in AccurateRip database
Copy OK

Track 16

Filename Z:\Music\The Residents - 2017 - 80 Aching Orphans - 45 Years of The Residents\Disk 1\16 - Eloise.wav

Pre-gap length 0:00:02.60

Peak level 94.5 %
Extraction speed 7.2 X
Track quality 100.0 %
Test CRC 49AED342
Copy CRC 49AED342
Track not present in AccurateRip database
Copy OK

Track 17

Filename Z:\Music\The Residents - 2017 - 80 Aching Orphans - 45 Years of The Residents\Disk 1\17 - Moisture.wav

Pre-gap length 0:00:02.22

Peak level 94.5 %
Extraction speed 6.8 X
Track quality 100.0 %
Test CRC 6F58DB21
Copy CRC 6F58DB21
Track not present in AccurateRip database
Copy OK

Track 18

Filename Z:\Music\The Residents - 2017 - 80 Aching Orphans - 45 Years of The Residents\Disk 1\18 - There's Blood on the Bunny (Thoreau Mix).wav

Pre-gap length 0:00:01.35

Peak level 94.5 %
Extraction speed 9.3 X
Track quality 100.0 %
Test CRC E28BABD3
Copy CRC E28BABD3
Track not present in AccurateRip database
Copy OK

Track 19

Filename Z:\Music\The Residents - 2017 - 80 Aching Orphans - 45 Years of The Residents\Disk 1\19 - Shortnin' Bread.wav

Pre-gap length 0:00:01.19

Peak level 94.5 %
Extraction speed 8.1 X
Track quality 100.0 %
Test CRC 4AFCCE3E
Copy CRC 4AFCCE3E
Track not present in AccurateRip database
Copy OK

Track 20

Filename Z:\Music\The Residents - 2017 - 80 Aching Orphans - 45 Years of The Residents\Disk 1\20 - Burn Baby Burn.wav

Peak level 94.5 %
Extraction speed 7.2 X
Track quality 99.9 %
Test CRC B8CBFFA3
Copy CRC B8CBFFA3
Track not present in AccurateRip database
Copy OK

Track 21

Filename Z:\Music\The Residents - 2017 - 80 Aching Orphans - 45 Years of The Residents\Disk 1\21 - The Car Thief.wav

Pre-gap length 0:00:01.63

Peak level 94.5 %
Extraction speed 9.8 X
Track quality 100.0 %
Test CRC 5632A090
Copy CRC 5632A090
Track not present in AccurateRip database
Copy OK

Track 22

Filename Z:\Music\The Residents - 2017 - 80 Aching Orphans - 45 Years of The Residents\Disk 1\22 - Squeaky Wheels.wav

Pre-gap length 0:00:01.60

Peak level 94.5 %
Extraction speed 7.5 X
Track quality 99.9 %
Test CRC 9F3A5305
Copy CRC 9F3A5305
Track not present in AccurateRip database
Copy OK


None of the tracks are present in the AccurateRip database

No errors occurred

End of status report

–– CUETools DB Plugin V2.1.4

[CTDB TOCID: rVDjTcHb6eeY0.F2kiNL9U12A5Q-] found
Submit result: already submitted
Track | CTDB Status
1 | (1/1) Accurately ripped
2 | (1/1) Accurately ripped
3 | (1/1) Accurately ripped
4 | (1/1) Accurately ripped
5 | (1/1) Accurately ripped
6 | (1/1) Accurately ripped
7 | (1/1) Accurately ripped
8 | (1/1) Accurately ripped
9 | (1/1) Accurately ripped
10 | (1/1) Accurately ripped
11 | (1/1) Accurately ripped
12 | (1/1) Accurately ripped
13 | (1/1) Accurately ripped
14 | (1/1) Accurately ripped
15 | (1/1) Accurately ripped
16 | (1/1) Accurately ripped
17 | (1/1) Accurately ripped
18 | (1/1) Accurately ripped
19 | (1/1) Accurately ripped
20 | (1/1) Accurately ripped
21 | (1/1) Accurately ripped
22 | (1/1) Accurately ripped


==== Log checksum C70F292655A4CC956C36C294764E30D2A12EDBDC9450B105F6D014349AB42020 ====

Exact Audio Copy V1.0 beta 4 from 7. December 2014

EAC extraction logfile from 9. October 2017, 22:55

The Residents / 80 Aching Orphans

Used drive : ASUS DRW-24B1ST c Adapter: 1 ID: 0

Read mode : Secure
Utilize accurate stream : Yes
Defeat audio cache : Yes
Make use of C2 pointers : No

Read offset correction : 6
Overread into Lead-In and Lead-Out : No
Fill up missing offset samples with silence : Yes
Delete leading and trailing silent blocks : No
Null samples used in CRC calculations : Yes
Used interface : Native Win32 interface for Win NT & 2000
Gap handling : Appended to previous track

Used output format : User Defined Encoder
Selected bitrate : 1024 kBit/s
Quality : High
Add ID3 tag : No
Command line compressor : C:\Program Files (x86)\Exact Audio Copy\Flac\flac.exe
Additional command line options : -8 -V -T "ARTIST=%artist%" -T "TITLE=%title%" -T "ALBUM=%albumtitle%" -T "DATE=%year%" -T "TRACKNUMBER=%tracknr%" -T "GENRE=%genre%" -T "PERFORMER=%albuminterpret%" -T "COMPOSER=%composer%" %haslyrics%–tag-from-file=LYRICS="%lyricsfile%"%haslyrics% -T "ALBUMARTIST=%albumartist%" -T "DISCNUMBER=%cdnumber%" -T "TOTALDISCS=%totalcds%" -T "TOTALTRACKS=%numtracks%" -T "COMMENT=%comment%" %source% -o %dest%


TOC of the extracted CD

Track | Start | Length | Start sector | End sector
––––––––––––––––––––––––––––-
1 | 0:00.00 | 9:31.23 | 0 | 42847
2 | 9:31.23 | 1:35.34 | 42848 | 50006
3 | 11:06.57 | 2:04.52 | 50007 | 59358
4 | 13:11.34 | 2:24.33 | 59359 | 70191
5 | 15:35.67 | 3:07.25 | 70192 | 84241
6 | 18:43.17 | 1:04.30 | 84242 | 89071
7 | 19:47.47 | 2:31.42 | 89072 | 100438
8 | 22:19.14 | 2:06.19 | 100439 | 109907
9 | 24:25.33 | 4:38.13 | 109908 | 130770
10 | 29:03.46 | 7:05.21 | 130771 | 162666
11 | 36:08.67 | 4:32.48 | 162667 | 183114
12 | 40:41.40 | 1:40.32 | 183115 | 190646
13 | 42:21.72 | 3:48.69 | 190647 | 207815
14 | 46:10.66 | 4:34.43 | 207816 | 228408
15 | 50:45.34 | 5:41.07 | 228409 | 253990
16 | 56:26.41 | 1:03.08 | 253991 | 258723
17 | 57:29.49 | 4:03.67 | 258724 | 277015
18 | 61:33.41 | 2:58.19 | 277016 | 290384
19 | 64:31.60 | 5:01.39 | 290385 | 312998


Track 1

Filename Z:\Music\The Residents - 2017 - 80 Aching Orphans - 45 Years of The Residents\Disk 2\23 - Kaw-Liga (Prairie Mix).wav

Pre-gap length 0:00:02.00

Peak level 94.4 %
Extraction speed 5.7 X
Track quality 100.0 %
Test CRC F100E04C
Copy CRC F100E04C
Track not present in AccurateRip database
Copy OK

Track 2

Filename Z:\Music\The Residents - 2017 - 80 Aching Orphans - 45 Years of The Residents\Disk 2\24 - Yummy Yummy Yummy.wav

Pre-gap length 0:00:02.05

Peak level 94.4 %
Extraction speed 4.9 X
Track quality 100.0 %
Test CRC 148ACD35
Copy CRC 148ACD35
Track not present in AccurateRip database
Copy OK

Track 3

Filename Z:\Music\The Residents - 2017 - 80 Aching Orphans - 45 Years of The Residents\Disk 2\25 - In San Francisco.wav

Pre-gap length 0:00:02.51

Peak level 85.3 %
Extraction speed 5.5 X
Track quality 100.0 %
Test CRC C9F71D24
Copy CRC C9F71D24
Track not present in AccurateRip database
Copy OK

Track 4

Filename Z:\Music\The Residents - 2017 - 80 Aching Orphans - 45 Years of The Residents\Disk 2\26 - Constantinople.wav

Pre-gap length 0:00:02.54

Peak level 85.4 %
Extraction speed 4.4 X
Track quality 99.9 %
Test CRC 67AD790E
Copy CRC 67AD790E
Track not present in AccurateRip database
Copy OK

Track 5

Filename Z:\Music\The Residents - 2017 - 80 Aching Orphans - 45 Years of The Residents\Disk 2\27 - Jailhouse Rock.wav

Pre-gap length 0:00:02.17

Peak level 75.8 %
Extraction speed 6.4 X
Track quality 100.0 %
Test CRC 426FD2B7
Copy CRC 426FD2B7
Track not present in AccurateRip database
Copy OK

Track 6

Filename Z:\Music\The Residents - 2017 - 80 Aching Orphans - 45 Years of The Residents\Disk 2\28 - Where is She.wav

Pre-gap length 0:00:00.69

Peak level 94.4 %
Extraction speed 3.1 X
Track quality 99.8 %
Test CRC EDD092AC
Copy CRC EDD092AC
Track not present in AccurateRip database
Copy OK

Track 7

Filename Z:\Music\The Residents - 2017 - 80 Aching Orphans - 45 Years of The Residents\Disk 2\29 - Easter Woman (Live).wav

Pre-gap length 0:00:02.32

Peak level 94.4 %
Extraction speed 6.5 X
Track quality 100.0 %
Test CRC F5A2E3F3
Copy CRC F5A2E3F3
Track not present in AccurateRip database
Copy OK

Track 8

Filename Z:\Music\The Residents - 2017 - 80 Aching Orphans - 45 Years of The Residents\Disk 2\30 - Insincere.wav

Pre-gap length 0:00:02.29

Peak level 83.6 %
Extraction speed 6.5 X
Track quality 100.0 %
Test CRC 81B8D763
Copy CRC 81B8D763
Track not present in AccurateRip database
Copy OK

Track 9

Filename Z:\Music\The Residents - 2017 - 80 Aching Orphans - 45 Years of The Residents\Disk 2\31 - Hard and Tenderly.wav

Pre-gap length 0:00:01.39

Peak level 82.1 %
Extraction speed 7.6 X
Track quality 100.0 %
Test CRC 06540E1F
Copy CRC 06540E1F
Track not present in AccurateRip database
Copy OK

Track 10

Filename Z:\Music\The Residents - 2017 - 80 Aching Orphans - 45 Years of The Residents\Disk 2\32 - Migration.wav

Peak level 87.8 %
Extraction speed 7.4 X
Track quality 99.9 %
Test CRC 3FA17555
Copy CRC 3FA17555
Track not present in AccurateRip database
Copy OK

Track 11

Filename Z:\Music\The Residents - 2017 - 80 Aching Orphans - 45 Years of The Residents\Disk 2\33 - Satisfaction.wav

Pre-gap length 0:00:01.69

Peak level 77.6 %
Extraction speed 8.5 X
Track quality 100.0 %
Test CRC 6E490584
Copy CRC 6E490584
Track not present in AccurateRip database
Copy OK

Track 12

Filename Z:\Music\The Residents - 2017 - 80 Aching Orphans - 45 Years of The Residents\Disk 2\34 - Kamikaze Lady.wav

Pre-gap length 0:00:02.19

Peak level 78.3 %
Extraction speed 7.1 X
Track quality 100.0 %
Test CRC 8A6CD5A4
Copy CRC 8A6CD5A4
Track not present in AccurateRip database
Copy OK

Track 13

Filename Z:\Music\The Residents - 2017 - 80 Aching Orphans - 45 Years of The Residents\Disk 2\35 - Burning Love (Live TV Version).wav

Pre-gap length 0:00:01.36

Peak level 94.4 %
Extraction speed 8.6 X
Track quality 100.0 %
Test CRC 241E68FB
Copy CRC 241E68FB
Track not present in AccurateRip database
Copy OK

Track 14

Filename Z:\Music\The Residents - 2017 - 80 Aching Orphans - 45 Years of The Residents\Disk 2\36 - The Aging Musician.wav

Peak level 88.1 %
Extraction speed 7.6 X
Track quality 99.9 %
Test CRC C84A62C6
Copy CRC C84A62C6
Track not present in AccurateRip database
Copy OK

Track 15

Filename Z:\Music\The Residents - 2017 - 80 Aching Orphans - 45 Years of The Residents\Disk 2\37 - Six More Miles.wav

Peak level 94.4 %
Extraction speed 9.7 X
Track quality 100.0 %
Test CRC 509284DC
Copy CRC 509284DC
Track not present in AccurateRip database
Copy OK

Track 16

Filename Z:\Music\The Residents - 2017 - 80 Aching Orphans - 45 Years of The Residents\Disk 2\38 - The Simple Song.wav

Pre-gap length 0:00:02.05

Peak level 94.4 %
Extraction speed 6.9 X
Track quality 100.0 %
Test CRC 06E51070
Copy CRC 06E51070
Track not present in AccurateRip database
Copy OK

Track 17

Filename Z:\Music\The Residents - 2017 - 80 Aching Orphans - 45 Years of The Residents\Disk 2\39 - Safety is a Cootie Wootie.wav

Pre-gap length 0:00:02.42

Peak level 100.0 %
Extraction speed 9.7 X
Track quality 100.0 %
Test CRC 39EC2608
Copy CRC 39EC2608
Track not present in AccurateRip database
Copy OK

Track 18

Filename Z:\Music\The Residents - 2017 - 80 Aching Orphans - 45 Years of The Residents\Disk 2\40 - Tourniquet of Roses.wav

Pre-gap length 0:00:00.59

Peak level 86.6 %
Extraction speed 7.3 X
Track quality 99.9 %
Test CRC DA24A15F
Copy CRC DA24A15F
Track not present in AccurateRip database
Copy OK

Track 19

Filename Z:\Music\The Residents - 2017 - 80 Aching Orphans - 45 Years of The Residents\Disk 2\41 - The Angry Angakok.wav

Peak level 100.0 %
Extraction speed 0.2 X
Track quality 99.7 %
Test CRC 30B73822
Copy CRC 30B73822
Track not present in AccurateRip database
Copy OK


None of the tracks are present in the AccurateRip database

No errors occurred

End of status report

–– CUETools DB Plugin V2.1.4

[CTDB TOCID: F7ZpnNYLqO8cYik1P7BwpZiS_1A-] found
Submit result: already submitted
Track | CTDB Status
1 | (1/1) Accurately ripped
2 | (1/1) Accurately ripped
3 | (1/1) Accurately ripped
4 | (1/1) Accurately ripped
5 | (1/1) Accurately ripped
6 | (1/1) Accurately ripped
7 | (1/1) Accurately ripped
8 | (1/1) Accurately ripped
9 | (1/1) Accurately ripped
10 | (1/1) Accurately ripped
11 | (1/1) Accurately ripped
12 | (1/1) Accurately ripped
13 | (1/1) Accurately ripped
14 | (1/1) Accurately ripped
15 | (1/1) Accurately ripped
16 | (1/1) Accurately ripped
17 | (1/1) Accurately ripped
18 | (1/1) Accurately ripped
19 | (1/1) Accurately ripped


==== Log checksum 1EE2070BA588E01B8FC820BEF8D707E36DDDDC4F7B50C497C4B3EFC2B5868E67 ====

Exact Audio Copy V1.0 beta 4 from 7. December 2014

EAC extraction logfile from 9. October 2017, 23:35

The Residents / 80 Aching Orphans

Used drive : ASUS DRW-24B1ST c Adapter: 1 ID: 0

Read mode : Secure
Utilize accurate stream : Yes
Defeat audio cache : Yes
Make use of C2 pointers : No

Read offset correction : 6
Overread into Lead-In and Lead-Out : No
Fill up missing offset samples with silence : Yes
Delete leading and trailing silent blocks : No
Null samples used in CRC calculations : Yes
Used interface : Native Win32 interface for Win NT & 2000
Gap handling : Appended to previous track

Used output format : User Defined Encoder
Selected bitrate : 1024 kBit/s
Quality : High
Add ID3 tag : No
Command line compressor : C:\Program Files (x86)\Exact Audio Copy\Flac\flac.exe
Additional command line options : -8 -V -T "ARTIST=%artist%" -T "TITLE=%title%" -T "ALBUM=%albumtitle%" -T "DATE=%year%" -T "TRACKNUMBER=%tracknr%" -T "GENRE=%genre%" -T "PERFORMER=%albuminterpret%" -T "COMPOSER=%composer%" %haslyrics%–tag-from-file=LYRICS="%lyricsfile%"%haslyrics% -T "ALBUMARTIST=%albumartist%" -T "DISCNUMBER=%cdnumber%" -T "TOTALDISCS=%totalcds%" -T "TOTALTRACKS=%numtracks%" -T "COMMENT=%comment%" %source% -o %dest%


TOC of the extracted CD

Track | Start | Length | Start sector | End sector
––––––––––––––––––––––––––––-
1 | 0:00.00 | 2:50.42 | 0 | 12791
2 | 2:50.42 | 3:54.71 | 12792 | 30412
3 | 6:45.38 | 2:43.13 | 30413 | 42650
4 | 9:28.51 | 4:45.18 | 42651 | 64043
5 | 14:13.69 | 5:51.22 | 64044 | 90390
6 | 20:05.16 | 1:46.19 | 90391 | 98359
7 | 21:51.35 | 1:52.68 | 98360 | 106827
8 | 23:44.28 | 5:00.37 | 106828 | 129364
9 | 28:44.65 | 3:23.70 | 129365 | 144659
10 | 32:08.60 | 0:53.10 | 144660 | 148644
11 | 33:01.70 | 2:41.25 | 148645 | 160744
12 | 35:43.20 | 4:02.67 | 160745 | 178961
13 | 39:46.12 | 4:12.71 | 178962 | 197932
14 | 43:59.08 | 4:48.45 | 197933 | 219577
15 | 48:47.53 | 2:57.69 | 219578 | 232921
16 | 51:45.47 | 3:25.37 | 232922 | 248333
17 | 55:11.09 | 8:52.53 | 248334 | 288286
18 | 64:03.62 | 8:02.50 | 288287 | 324486


Track 1

Filename Z:\Music\The Residents - 2017 - 80 Aching Orphans - 45 Years of The Residents\Disk 3\42 - A Maze of Jigsaws.wav

Pre-gap length 0:00:02.00

Peak level 99.7 %
Extraction speed 4.8 X
Track quality 100.0 %
Test CRC 876C3EBD
Copy CRC 876C3EBD
Track not present in AccurateRip database
Copy OK

Track 2

Filename Z:\Music\The Residents - 2017 - 80 Aching Orphans - 45 Years of The Residents\Disk 3\43 - Beyond the Valley of a Day in the Life.wav

Pre-gap length 0:00:01.60

Peak level 97.7 %
Extraction speed 5.5 X
Track quality 100.0 %
Test CRC 7782A0CC
Copy CRC 7782A0CC
Track not present in AccurateRip database
Copy OK

Track 3

Filename Z:\Music\The Residents - 2017 - 80 Aching Orphans - 45 Years of The Residents\Disk 3\44 - The Mad Sawmill of Copenhagen, Germany.wav

Pre-gap length 0:00:00.61

Peak level 69.0 %
Extraction speed 5.5 X
Track quality 100.0 %
Test CRC 8F9EDF9E
Copy CRC 8F9EDF9E
Track not present in AccurateRip database
Copy OK

Track 4

Filename Z:\Music\The Residents - 2017 - 80 Aching Orphans - 45 Years of The Residents\Disk 3\45 - Jambalaya.wav

Pre-gap length 0:00:02.46

Peak level 97.7 %
Extraction speed 6.5 X
Track quality 100.0 %
Test CRC D1B12FC7
Copy CRC D1B12FC7
Track not present in AccurateRip database
Copy OK

Track 5

Filename Z:\Music\The Residents - 2017 - 80 Aching Orphans - 45 Years of The Residents\Disk 3\46 - Cry for the Fire.wav

Pre-gap length 0:00:02.05

Peak level 97.7 %
Extraction speed 7.1 X
Track quality 100.0 %
Test CRC 1A51E6A8
Copy CRC 1A51E6A8
Track not present in AccurateRip database
Copy OK

Track 6

Filename Z:\Music\The Residents - 2017 - 80 Aching Orphans - 45 Years of The Residents\Disk 3\47 - Smelly Tongues (Mono).wav

Pre-gap length 0:00:00.62

Peak level 84.4 %
Extraction speed 4.3 X
Track quality 99.8 %
Test CRC 0057C882
Copy CRC 0057C882
Track not present in AccurateRip database
Copy OK

Track 7

Filename Z:\Music\The Residents - 2017 - 80 Aching Orphans - 45 Years of The Residents\Disk 3\48 - Santa Dog '78.wav

Pre-gap length 0:00:02.22

Peak level 79.4 %
Extraction speed 6.4 X
Track quality 100.0 %
Test CRC 90D46405
Copy CRC 90D46405
Track not present in AccurateRip database
Copy OK

Track 8

Filename Z:\Music\The Residents - 2017 - 80 Aching Orphans - 45 Years of The Residents\Disk 3\49 - Floating Down the Nile Part 2.wav

Pre-gap length 0:00:02.12

Peak level 97.7 %
Extraction speed 7.7 X
Track quality 100.0 %
Test CRC 6B3F501A
Copy CRC 6B3F501A
Track not present in AccurateRip database
Copy OK

Track 9

Filename Z:\Music\The Residents - 2017 - 80 Aching Orphans - 45 Years of The Residents\Disk 3\50 - The Marvels of Mayhem.wav

Peak level 74.3 %
Extraction speed 7.7 X
Track quality 100.0 %
Test CRC 3D79484B
Copy CRC 3D79484B
Track not present in AccurateRip database
Copy OK

Track 10

Filename Z:\Music\The Residents - 2017 - 80 Aching Orphans - 45 Years of The Residents\Disk 3\51 - Earth vs the Flying Saucers.wav

Peak level 69.4 %
Extraction speed 3.2 X
Track quality 99.7 %
Test CRC BEE695CE
Copy CRC BEE695CE
Track not present in AccurateRip database
Copy OK

Track 11

Filename Z:\Music\The Residents - 2017 - 80 Aching Orphans - 45 Years of The Residents\Disk 3\52 - Hello Skinny.wav

Pre-gap length 0:00:01.60

Peak level 77.8 %
Extraction speed 5.8 X
Track quality 99.9 %
Test CRC B667C4ED
Copy CRC B667C4ED
Track not present in AccurateRip database
Copy OK

Track 12

Filename Z:\Music\The Residents - 2017 - 80 Aching Orphans - 45 Years of The Residents\Disk 3\53 - The Monkey Man.wav

Pre-gap length 0:00:02.01

Peak level 81.1 %
Extraction speed 8.5 X
Track quality 100.0 %
Test CRC 2CD35BF1
Copy CRC 2CD35BF1
Track not present in AccurateRip database
Copy OK

Track 13

Filename Z:\Music\The Residents - 2017 - 80 Aching Orphans - 45 Years of The Residents\Disk 3\54 - Mahogany Wood.wav

Pre-gap length 0:00:01.29

Peak level 100.0 %
Extraction speed 7.3 X
Track quality 99.9 %
Test CRC 0D2FD93F
Copy CRC 0D2FD93F
Track not present in AccurateRip database
Copy OK

Track 14

Filename Z:\Music\The Residents - 2017 - 80 Aching Orphans - 45 Years of The Residents\Disk 3\55 - Edweena (Extract).wav

Pre-gap length 0:00:01.67

Peak level 61.6 %
Extraction speed 9.3 X
Track quality 100.0 %
Test CRC F722F81A
Copy CRC F722F81A
Track not present in AccurateRip database
Copy OK

Track 15

Filename Z:\Music\The Residents - 2017 - 80 Aching Orphans - 45 Years of The Residents\Disk 3\56 - Melon Collie Lassie.wav

Pre-gap length 0:00:02.08

Peak level 76.1 %
Extraction speed 6.9 X
Track quality 99.9 %
Test CRC 4AD5DE36
Copy CRC 4AD5DE36
Track not present in AccurateRip database
Copy OK

Track 16

Filename Z:\Music\The Residents - 2017 - 80 Aching Orphans - 45 Years of The Residents\Disk 3\57 - The Sleepwalker.wav

Pre-gap length 0:00:03.11

Peak level 89.1 %
Extraction speed 7.4 X
Track quality 99.9 %
Test CRC F44DA4EA
Copy CRC F44DA4EA
Track not present in AccurateRip database
Copy OK

Track 17

Filename Z:\Music\The Residents - 2017 - 80 Aching Orphans - 45 Years of The Residents\Disk 3\58 - The Knife Fight.wav

Peak level 66.0 %
Extraction speed 10.6 X
Track quality 100.0 %
Test CRC 90790B5F
Copy CRC 90790B5F
Track not present in AccurateRip database
Copy OK

Track 18

Filename Z:\Music\The Residents - 2017 - 80 Aching Orphans - 45 Years of The Residents\Disk 3\59 - Holy Kiss of the Flesh (Edit).wav

Pre-gap length 0:00:02.40

Peak level 97.7 %
Extraction speed 1.2 X
Track quality 99.8 %
Test CRC 82D96E6C
Copy CRC 82D96E6C
Track not present in AccurateRip database
Copy OK


None of the tracks are present in the AccurateRip database

No errors occurred

End of status report

–– CUETools DB Plugin V2.1.4

[CTDB TOCID: FUWA3tfMLmc1zPKLF1pvqvpvmb4-] found
Submit result: already submitted
Track | CTDB Status
1 | (1/1) Accurately ripped
2 | (1/1) Accurately ripped
3 | (1/1) Accurately ripped
4 | (1/1) Accurately ripped
5 | (1/1) Accurately ripped
6 | (1/1) Accurately ripped
7 | (1/1) Accurately ripped
8 | (1/1) Accurately ripped
9 | (1/1) Accurately ripped
10 | (1/1) Accurately ripped
11 | (1/1) Accurately ripped
12 | (1/1) Accurately ripped
13 | (1/1) Accurately ripped
14 | (1/1) Accurately ripped
15 | (1/1) Accurately ripped
16 | (1/1) Accurately ripped
17 | (1/1) Accurately ripped
18 | (1/1) Accurately ripped


==== Log checksum FEEC0D197745BDEF49B5280D9484F73A1351A9D573C67F3728C22E997723AA24 ====

Exact Audio Copy V1.0 beta 4 from 7. December 2014

EAC extraction logfile from 9. October 2017, 23:59

The Residents / 80 Aching Orphans

Used drive : ASUS DRW-24B1ST c Adapter: 1 ID: 0

Read mode : Secure
Utilize accurate stream : Yes
Defeat audio cache : Yes
Make use of C2 pointers : No

Read offset correction : 6
Overread into Lead-In and Lead-Out : No
Fill up missing offset samples with silence : Yes
Delete leading and trailing silent blocks : No
Null samples used in CRC calculations : Yes
Used interface : Native Win32 interface for Win NT & 2000
Gap handling : Appended to previous track

Used output format : User Defined Encoder
Selected bitrate : 1024 kBit/s
Quality : High
Add ID3 tag : No
Command line compressor : C:\Program Files (x86)\Exact Audio Copy\Flac\flac.exe
Additional command line options : -8 -V -T "ARTIST=%artist%" -T "TITLE=%title%" -T "ALBUM=%albumtitle%" -T "DATE=%year%" -T "TRACKNUMBER=%tracknr%" -T "GENRE=%genre%" -T "PERFORMER=%albuminterpret%" -T "COMPOSER=%composer%" %haslyrics%–tag-from-file=LYRICS="%lyricsfile%"%haslyrics% -T "ALBUMARTIST=%albumartist%" -T "DISCNUMBER=%cdnumber%" -T "TOTALDISCS=%totalcds%" -T "TOTALTRACKS=%numtracks%" -T "COMMENT=%comment%" %source% -o %dest%


TOC of the extracted CD

Track | Start | Length | Start sector | End sector
––––––––––––––––––––––––––––-
1 | 0:00.00 | 2:12.09 | 0 | 9908
2 | 2:12.09 | 3:37.71 | 9909 | 26254
3 | 5:50.05 | 0:56.13 | 26255 | 30467
4 | 6:46.18 | 2:16.30 | 30468 | 40697
5 | 9:02.48 | 1:03.51 | 40698 | 45473
6 | 10:06.24 | 3:57.67 | 45474 | 63315
7 | 14:04.16 | 1:13.68 | 63316 | 68858
8 | 15:18.09 | 0:58.44 | 68859 | 73252
9 | 16:16.53 | 2:21.72 | 73253 | 83899
10 | 18:38.50 | 4:43.54 | 83900 | 105178
11 | 23:22.29 | 2:52.73 | 105179 | 118151
12 | 26:15.27 | 2:35.13 | 118152 | 129789
13 | 28:50.40 | 2:58.13 | 129790 | 143152
14 | 31:48.53 | 3:15.08 | 143153 | 157785
15 | 35:03.61 | 5:12.70 | 157786 | 181255
16 | 40:16.56 | 2:56.43 | 181256 | 194498
17 | 43:13.24 | 5:28.31 | 194499 | 219129
18 | 48:41.55 | 2:47.20 | 219130 | 231674
19 | 51:29.00 | 2:17.07 | 231675 | 241956
20 | 53:46.07 | 3:44.39 | 241957 | 258795
21 | 57:30.46 | 6:39.74 | 258796 | 288794


Track 1

Filename Z:\Music\The Residents - 2017 - 80 Aching Orphans - 45 Years of The Residents\Disk 4\60 - Loser = Weed.wav

Pre-gap length 0:00:02.00

Peak level 77.5 %
Extraction speed 3.2 X
Track quality 99.9 %
Test CRC 0A0FA22D
Copy CRC 0A0FA22D
Track not present in AccurateRip database
Copy OK

Track 2

Filename Z:\Music\The Residents - 2017 - 80 Aching Orphans - 45 Years of The Residents\Disk 4\61 - Blue Tongues.wav

Pre-gap length 0:00:01.61

Peak level 97.7 %
Extraction speed 5.0 X
Track quality 100.0 %
Test CRC B8BE814B
Copy CRC B8BE814B
Track not present in AccurateRip database
Copy OK

Track 3

Filename Z:\Music\The Residents - 2017 - 80 Aching Orphans - 45 Years of The Residents\Disk 4\62 - Boots.wav

Pre-gap length 0:00:00.28

Peak level 97.7 %
Extraction speed 3.7 X
Track quality 100.0 %
Test CRC FF67DCC0
Copy CRC FF67DCC0
Track not present in AccurateRip database
Copy OK

Track 4

Filename Z:\Music\The Residents - 2017 - 80 Aching Orphans - 45 Years of The Residents\Disk 4\63 - Susie Smiles.wav

Pre-gap length 0:00:02.47

Peak level 63.8 %
Extraction speed 5.0 X
Track quality 100.0 %
Test CRC A546C1B0
Copy CRC A546C1B0
Track not present in AccurateRip database
Copy OK

Track 5

Filename Z:\Music\The Residents - 2017 - 80 Aching Orphans - 45 Years of The Residents\Disk 4\64 - Perfect Love.wav

Pre-gap length 0:00:01.13

Peak level 96.5 %
Extraction speed 4.2 X
Track quality 100.0 %
Test CRC B42EC026
Copy CRC B42EC026
Track not present in AccurateRip database
Copy OK

Track 6

Filename Z:\Music\The Residents - 2017 - 80 Aching Orphans - 45 Years of The Residents\Disk 4\65 - Hit the Road Jack (Remix).wav

Pre-gap length 0:00:02.18

Peak level 77.5 %
Extraction speed 6.1 X
Track quality 100.0 %
Test CRC 7DA271AA
Copy CRC 7DA271AA
Track not present in AccurateRip database
Copy OK

Track 7

Filename Z:\Music\The Residents - 2017 - 80 Aching Orphans - 45 Years of The Residents\Disk 4\66 - Bach is Dead.wav

Pre-gap length 0:00:01.62

Peak level 82.7 %
Extraction speed 4.8 X
Track quality 100.0 %
Test CRC 979FA0E7
Copy CRC 979FA0E7
Track not present in AccurateRip database
Copy OK

Track 8

Filename Z:\Music\The Residents - 2017 - 80 Aching Orphans - 45 Years of The Residents\Disk 4\67 - 96 Tears.wav

Pre-gap length 0:00:02.09

Peak level 97.7 %
Extraction speed 4.6 X
Track quality 100.0 %
Test CRC 3526EA6E
Copy CRC 3526EA6E
Track not present in AccurateRip database
Copy OK

Track 9

Filename Z:\Music\The Residents - 2017 - 80 Aching Orphans - 45 Years of The Residents\Disk 4\68 - Ship's A'Going Down (Extract).wav

Pre-gap length 0:00:01.20

Peak level 83.8 %
Extraction speed 6.1 X
Track quality 100.0 %
Test CRC 7BD85942
Copy CRC 7BD85942
Track not present in AccurateRip database
Copy OK

Track 10

Filename Z:\Music\The Residents - 2017 - 80 Aching Orphans - 45 Years of The Residents\Disk 4\69 - The Black Behind.wav

Pre-gap length 0:00:01.58

Peak level 88.3 %
Extraction speed 7.2 X
Track quality 100.0 %
Test CRC 8D749690
Copy CRC 8D749690
Track not present in AccurateRip database
Copy OK

Track 11

Filename Z:\Music\The Residents - 2017 - 80 Aching Orphans - 45 Years of The Residents\Disk 4\70 - I Hate Heaven.wav

Pre-gap length 0:00:01.01

Peak level 80.4 %
Extraction speed 5.4 X
Track quality 99.9 %
Test CRC 5A14782B
Copy CRC 5A14782B
Track not present in AccurateRip database
Copy OK

Track 12

Filename Z:\Music\The Residents - 2017 - 80 Aching Orphans - 45 Years of The Residents\Disk 4\71 - Semper Fidelis.wav

Pre-gap length 0:00:02.20

Peak level 97.7 %
Extraction speed 7.0 X
Track quality 100.0 %
Test CRC 7ABC61E5
Copy CRC 7ABC61E5
Track not present in AccurateRip database
Copy OK

Track 13

Filename Z:\Music\The Residents - 2017 - 80 Aching Orphans - 45 Years of The Residents\Disk 4\72 - Don't Be Cruel.wav

Pre-gap length 0:00:01.71

Peak level 93.7 %
Extraction speed 7.4 X
Track quality 100.0 %
Test CRC 0DE18482
Copy CRC 0DE18482
Track not present in AccurateRip database
Copy OK

Track 14

Filename Z:\Music\The Residents - 2017 - 80 Aching Orphans - 45 Years of The Residents\Disk 4\73 - Matchmaker.wav

Pre-gap length 0:00:02.00

Peak level 97.7 %
Extraction speed 7.7 X
Track quality 100.0 %
Test CRC 52A07F1B
Copy CRC 52A07F1B
Track not present in AccurateRip database
Copy OK

Track 15

Filename Z:\Music\The Residents - 2017 - 80 Aching Orphans - 45 Years of The Residents\Disk 4\74 - Would We Be Alive.wav

Pre-gap length 0:00:02.03

Peak level 75.5 %
Extraction speed 8.6 X
Track quality 100.0 %
Test CRC FE26AD98
Copy CRC FE26AD98
Track not present in AccurateRip database
Copy OK

Track 16

Filename Z:\Music\The Residents - 2017 - 80 Aching Orphans - 45 Years of The Residents\Disk 4\75 - Daydream Believer.wav

Pre-gap length 0:00:01.23

Peak level 76.5 %
Extraction speed 8.2 X
Track quality 100.0 %
Test CRC 2CC2968F
Copy CRC 2CC2968F
Track not present in AccurateRip database
Copy OK

Track 17

Filename Z:\Music\The Residents - 2017 - 80 Aching Orphans - 45 Years of The Residents\Disk 4\76 - Shroud of Flames.wav

Pre-gap length 0:00:02.39

Peak level 83.1 %
Extraction speed 9.2 X
Track quality 100.0 %
Test CRC 7D7064BC
Copy CRC 7D7064BC
Track not present in AccurateRip database
Copy OK

Track 18

Filename Z:\Music\The Residents - 2017 - 80 Aching Orphans - 45 Years of The Residents\Disk 4\77 - Catatonia.wav

Peak level 97.7 %
Extraction speed 7.9 X
Track quality 100.0 %
Test CRC 79C9E013
Copy CRC 79C9E013
Track not present in AccurateRip database
Copy OK

Track 19

Filename Z:\Music\The Residents - 2017 - 80 Aching Orphans - 45 Years of The Residents\Disk 4\78 - Pollex Christi Part 4.wav

Pre-gap length 0:00:02.23

Peak level 97.7 %
Extraction speed 5.5 X
Track quality 99.9 %
Test CRC 53527A09
Copy CRC 53527A09
Track not present in AccurateRip database
Copy OK

Track 20

Filename Z:\Music\The Residents - 2017 - 80 Aching Orphans - 45 Years of The Residents\Disk 4\79 - Hunters Concentrate.wav

Pre-gap length 0:00:01.37

Peak level 97.7 %
Extraction speed 5.6 X
Track quality 100.0 %
Test CRC 3932329C
Copy CRC 3932329C
Track not present in AccurateRip database
Copy OK

Track 21

Filename Z:\Music\The Residents - 2017 - 80 Aching Orphans - 45 Years of The Residents\Disk 4\80 - Life Would Be Wonderful (Live in Oslo).wav

Pre-gap length 0:00:02.44

Peak level 97.7 %
Extraction speed 6.9 X
Track quality 100.0 %
Test CRC 19BD9B6A
Copy CRC 19BD9B6A
Track not present in AccurateRip database
Copy OK


None of the tracks are present in the AccurateRip database

No errors occurred

End of status report

–– CUETools DB Plugin V2.1.4

[CTDB TOCID: l79muDN_zd0XIAW1.khWXWO7cus-] disk not present in database
Submit result: l79muDN_zd0XIAW1.khWXWO7cus- has been uploaded


==== Log checksum FE1DC2EDD1B5E97BA0708B19C2FEE0D6B4EB3937A73CC156165781B0C2CB2D05 ====


Thanks to the Original customer.