Tags
Language
Tags
February 2023
Su Mo Tu We Th Fr Sa
29 30 31 1 2 3 4
5 6 7 8 9 10 11
12 13 14 15 16 17 18
19 20 21 22 23 24 25
26 27 28 1 2 3 4

Babyface - This Is For The Lover In You (UK CD5) (1996) {Epic} **[RE-UP]**

Posted By: TestTickles
Babyface - This Is For The Lover In You (UK CD5) (1996) {Epic} **[RE-UP]**

Babyface - This Is For The Lover In You (UK CD5) (1996) {Epic}
EAC Rip | FLAC with CUE and log | scans | 219 mb
MP3 CBR 320 kbps | RAR | 94 mb
Genre: R&B, soul, hip-hop, rap

"This Is For The Lover In You" is the 1996 single by American singer and producer Kenneth Edmonds, better known under his pseudonym Babyface. This UK CD5 features six different remixes of the song, including one featuring Wu-Tang Clan rapper Ghostface Killah. This was the first single in support of Babyface's album The Day. This was released by Epic.

Babyface - This Is For The Lover In You (UK CD5) (1996) {Epic} **[RE-UP]**

1. This Is For The Lover In You (That Kind Of Man Mix)
2. This Is For The Lover In You (Honey Lookin' Laced Mix)
3. This Is For The Lover In You (Puffy Combs Remix)
4. This Is For The Lover In You (Linslee Campbell Mix)
5. This Is For The Lover In You (Track Masters Remix)
6. This Is For The Lover In You (Jon-John Mix)

Exact Audio Copy V0.99 prebeta 4 from 23. January 2008

EAC extraction logfile from 15. June 2010, 8:13

Babyface / This Is For The Lover In You (UK CD5)

Used drive : TSSTcorpDVD+-RW TS-H653B Adapter: 2 ID: 0

Read mode : Secure
Utilize accurate stream : Yes
Defeat audio cache : Yes
Make use of C2 pointers : No

Read offset correction : 6
Overread into Lead-In and Lead-Out : No
Fill up missing offset samples with silence : Yes
Delete leading and trailing silent blocks : No
Null samples used in CRC calculations : Yes
Used interface : Native Win32 interface for Win NT & 2000
Gap handling : Appended to previous track

Used output format : Internal WAV Routines
Sample format : 44.100 Hz; 16 Bit; Stereo


TOC of the extracted CD

Track | Start | Length | Start sector | End sector
––––––––––––––––––––––––––––-
1 | 0:00.00 | 4:03.20 | 0 | 18244
2 | 4:03.20 | 4:01.42 | 18245 | 36361
3 | 8:04.62 | 6:20.15 | 36362 | 64876
4 | 14:25.02 | 6:17.50 | 64877 | 93201
5 | 20:42.52 | 5:03.35 | 93202 | 115961
6 | 25:46.12 | 7:53.35 | 115962 | 151471


Track 1

Filename C:\FLAC\Babyface - This Is For The Lover In You (UK CD5) (1996) [FLAC] {Epic}\01 - This Is For The Lover In You (That Kind Of Man Mix).wav

Pre-gap length 0:00:02.00

Peak level 97.7 %
Track quality 100.0 %
Test CRC 3F4049D8
Copy CRC 3F4049D8
Copy OK

Track 2

Filename C:\FLAC\Babyface - This Is For The Lover In You (UK CD5) (1996) [FLAC] {Epic}\02 - This Is For The Lover In You (Honey Lookin' Laced Mix).wav

Pre-gap length 0:00:02.50

Peak level 100.0 %
Track quality 100.0 %
Test CRC AD1E362A
Copy CRC AD1E362A
Copy OK

Track 3

Filename C:\FLAC\Babyface - This Is For The Lover In You (UK CD5) (1996) [FLAC] {Epic}\03 - This Is For The Lover In You (Puffy Combs Remix).wav

Pre-gap length 0:00:00.40

Peak level 91.1 %
Track quality 99.9 %
Test CRC 8360534D
Copy CRC 8360534D
Copy OK

Track 4

Filename C:\FLAC\Babyface - This Is For The Lover In You (UK CD5) (1996) [FLAC] {Epic}\04 - This Is For The Lover In You (Linslee Campbell Mix).wav

Pre-gap length 0:00:00.40

Peak level 98.2 %
Track quality 100.0 %
Test CRC FD3A9942
Copy CRC FD3A9942
Copy OK

Track 5

Filename C:\FLAC\Babyface - This Is For The Lover In You (UK CD5) (1996) [FLAC] {Epic}\05 - This Is For The Lover In You (Track Masters Remix).wav

Pre-gap length 0:00:00.56

Peak level 99.9 %
Track quality 100.0 %
Test CRC 7C770E64
Copy CRC 7C770E64
Copy OK

Track 6

Filename C:\FLAC\Babyface - This Is For The Lover In You (UK CD5) (1996) [FLAC] {Epic}\06 - This Is For The Lover In You (Jon-John Mix).wav

Pre-gap length 0:00:01.13

Peak level 93.8 %
Track quality 100.0 %
Test CRC 30559A8C
Copy CRC 30559A8C
Copy OK

No errors occurred

End of status report


Babyface - This Is For The Lover In You (UK CD5) (1996) {Epic} **[RE-UP]**