Tags
Language
Tags

Blue Öyster Cult - Imaginos (1988) {2008 American Beat} **[RE-UP]**

Posted By: TestTickles
Blue Öyster Cult - Imaginos (1988) {2008 American Beat} **[RE-UP]**

Blue Öyster Cult - Imaginos (1988) {2008 American Beat}
EAC Rip | FLAC with CUE and log | scans | 412 mb
MP3 CBR 320kbps | RAR | 134 mb
Genre: hard rock, pop rock, classic rock

Imaginos is the 1988 album by hard rock band Blue Öyster Cult. Originally released on Columbia Records, this CD was released by American Beat on 8 January, 2008.

Blue Öyster Cult - Imaginos (1988) {2008 American Beat} **[RE-UP]**

1. I Am The One You Warned Me Of
2. Les Invisibles
3. In The Presence Of Another World
4. Del Rio's Song
5. The Seige And Investiture Of Baron Von Frankenstein's Castle At Weisseria
6. Astronomy
7. Magna Of Illusion
8. Blue Öyster Cult
9. Imaginos

Eric Bloom-Vocals
Albert Bouchard-Guitar, percussion, vocals
Joe Bouchard-Keyboards, vocals
Allen Lanier-Keyboards
Donald "Buck Dharma" Roeser-Guitars, vocals

Kenny Aaronson-Bass
Thommy Price-Drums
Jack Secret-Additional vocals
Tommy Morrongiello-Guitars and arrangements… and vocals
Jack Rigg-Guitars
Tommy Zvoncheck-Keyboards
Shocking U-Background vocals on "In The Presence Of Another World"
Joey Cerisano-additional lead vocal on "The Siege and Investiture of Baron von Frankenstein's Castle at Weisseria"
Daniel Levitin-additional background vocals

Guitar Orchestra of the State of Imaginos:
Marc Biederman
Kevin Carlson
Robby Krieger
(lead guitar on "Blue Öyster Cult" and "Magna of Illusion")
Daniel Levitin
Tommy Morrongiello
-forward and reverse guitars
Aldo Nova
Jack Rigg
Joe Satriani
(lead guitar on "The Siege and Investiture of Baron von Frankenstein's Castle at Weisseria")

Produced by Sandy Pearlman
Associate producer: Albert Bouchard
Engineer: Paul Mandi

Blue Öyster Cult - Imaginos (1988) {2008 American Beat} **[RE-UP]**


Exact Audio Copy V0.99 prebeta 3 from 28. July 2007

EAC extraction logfile from 25. April 2008, 15:37

Blue Öyster Cult / Imaginos

Used drive : LITE-ON DVDRW SOHW-1633S Adapter: 0 ID: 0

Read mode : Secure
Utilize accurate stream : Yes
Defeat audio cache : Yes
Make use of C2 pointers : No

Read offset correction : 12
Overread into Lead-In and Lead-Out : No
Fill up missing offset samples with silence : Yes
Delete leading and trailing silent blocks : No
Null samples used in CRC calculations : Yes
Used interface : Installed external ASPI interface
Gap handling : Appended to previous track

Used output format : Internal WAV Routines
Sample format : 44.100 Hz; 16 Bit; Stereo


TOC of the extracted CD

Track | Start | Length | Start sector | End sector
––––––––––––––––––––––––––––-
1 | 0:00.00 | 5:05.50 | 0 | 22924
2 | 5:05.50 | 5:34.22 | 22925 | 47996
3 | 10:39.72 | 6:28.55 | 47997 | 77151
4 | 17:08.52 | 5:36.58 | 77152 | 102409
5 | 22:45.35 | 6:46.25 | 102410 | 132884
6 | 29:31.60 | 6:54.35 | 132885 | 163969
7 | 36:26.20 | 5:58.55 | 163970 | 190874
8 | 42:25.00 | 7:18.60 | 190875 | 223784
9 | 49:43.60 | 5:46.40 | 223785 | 249774


Track 1

Filename D:\FLAC\Blue Oyster Cult - Imaginos (1988) [FLAC] {2008 American Beat}\01 - I Am The One You Warned Me Of.wav

Pre-gap length 0:00:02.00

Peak level 99.9 %
Track quality 100.0 %
Test CRC 57443C1C
Copy CRC 57443C1C
Track not present in AccurateRip database
Copy OK

Track 2

Filename D:\FLAC\Blue Oyster Cult - Imaginos (1988) [FLAC] {2008 American Beat}\02 - Les Invisibles.wav

Pre-gap length 0:00:01.04

Peak level 98.6 %
Track quality 100.0 %
Test CRC 95CF3B8E
Copy CRC 95CF3B8E
Track not present in AccurateRip database
Copy OK

Track 3

Filename D:\FLAC\Blue Oyster Cult - Imaginos (1988) [FLAC] {2008 American Beat}\03 - In The Presence Of Another World.wav

Pre-gap length 0:00:01.73

Peak level 100.0 %
Track quality 100.0 %
Test CRC 6033859D
Copy CRC 6033859D
Track not present in AccurateRip database
Copy OK

Track 4

Filename D:\FLAC\Blue Oyster Cult - Imaginos (1988) [FLAC] {2008 American Beat}\04 - Del Rio's Song.wav

Pre-gap length 0:00:02.80

Peak level 99.9 %
Track quality 100.0 %
Test CRC B5A47A5F
Copy CRC B5A47A5F
Track not present in AccurateRip database
Copy OK

Track 5

Filename D:\FLAC\Blue Oyster Cult - Imaginos (1988) [FLAC] {2008 American Beat}\05 - The Seige And Investiture Of Baron Von Frankenstein's Castle At Weisseria.wav

Pre-gap length 0:00:02.00

Peak level 99.4 %
Track quality 100.0 %
Test CRC 711D8F83
Copy CRC 711D8F83
Track not present in AccurateRip database
Copy OK

Track 6

Filename D:\FLAC\Blue Oyster Cult - Imaginos (1988) [FLAC] {2008 American Beat}\06 - Astronomy.wav

Pre-gap length 0:00:02.04

Peak level 99.8 %
Track quality 100.0 %
Test CRC 2A13BCA3
Copy CRC 2A13BCA3
Track not present in AccurateRip database
Copy OK

Track 7

Filename D:\FLAC\Blue Oyster Cult - Imaginos (1988) [FLAC] {2008 American Beat}\07 - Magna Of Illusion.wav

Pre-gap length 0:00:05.90

Peak level 99.8 %
Track quality 100.0 %
Test CRC C5191C42
Copy CRC C5191C42
Track not present in AccurateRip database
Copy OK

Track 8

Filename D:\FLAC\Blue Oyster Cult - Imaginos (1988) [FLAC] {2008 American Beat}\08 - Blue Oyster Cult.wav

Pre-gap length 0:00:04.30

Peak level 100.0 %
Track quality 100.0 %
Test CRC DA18AAFA
Copy CRC DA18AAFA
Track not present in AccurateRip database
Copy OK

Track 9

Filename D:\FLAC\Blue Oyster Cult - Imaginos (1988) [FLAC] {2008 American Beat}\09 - Imaginos.wav

Pre-gap length 0:00:00.60

Peak level 100.0 %
Track quality 100.0 %
Test CRC 56F22C9C
Copy CRC 56F22C9C
Track not present in AccurateRip database
Copy OK


None of the tracks are present in the AccurateRip database

No errors occurred

End of status report


Blue Öyster Cult - Imaginos (1988) {2008 American Beat} **[RE-UP]**