Tags
Language
Tags

Brian Posehn - The Fartist (2013) {New Wave Dynamics}

Posted By:
Brian Posehn - The Fartist (2013) {New Wave Dynamics}

Brian Posehn - The Fartist (2013) {New Wave Dynamics}
EAC Rip | FLAC with CUE and log) | 356 mb
MP3 CBR 320kbps | RAR | 149 mb
Genre: comedy

The Fartist is the 2013 album by comedian and actor Brian Posehn. This is his third album, the first done for New Wave Dynamics.

Brian Posehn - The Fartist (2013) {New Wave Dynamics}

01. For My Wife
02. Strippers And Stripping
03. The Tale Of A Stripper
04. Quitting Weed
05. The Scariest Pot Story Ever Told
06. Do Not Punch My Baby
07. Um… My Farts
08. My Fart Meets Someone Famous
09. Getting Old
10. The Acopapypse
11. Weird Al
12. Taking Care Of Business
13. Getting Back On The Horse
14. Dirty Jokes
15. Star Wars, Part 3 (Yes, I'm Still Mad About Star Wars)

Exact Audio Copy V1.6 from 23. October 2020

EAC extraction logfile from 26. July 2021, 21:22

Brian Posehn / The Fartist

Used drive : HL-DT-STDVD+-RW GT32N Adapter: 1 ID: 0

Read mode : Burst

Read offset correction : 103
Overread into Lead-In and Lead-Out : No
Fill up missing offset samples with silence : Yes
Delete leading and trailing silent blocks : No
Null samples used in CRC calculations : Yes
Used interface : Native Win32 interface for Win NT & 2000
Gap handling : Not detected, thus appended to previous track

Used output format : Internal WAV Routines
Sample format : 44.100 Hz; 16 Bit; Stereo


TOC of the extracted CD

Track | Start | Length | Start sector | End sector
––––––––––––––––––––––––––––-
1 | 0:00.00 | 1:24.54 | 0 | 6353
2 | 1:24.54 | 3:02.61 | 6354 | 20064
3 | 4:27.40 | 2:13.30 | 20065 | 30069
4 | 6:40.70 | 3:13.00 | 30070 | 44544
5 | 9:53.70 | 4:26.64 | 44545 | 64558
6 | 14:20.59 | 5:07.41 | 64559 | 87624
7 | 19:28.25 | 3:27.07 | 87625 | 103156
8 | 22:55.32 | 6:57.37 | 103157 | 134468
9 | 29:52.69 | 6:17.20 | 134469 | 162763
10 | 36:10.14 | 4:55.01 | 162764 | 184889
11 | 41:05.15 | 2:07.72 | 184890 | 194486
12 | 43:13.12 | 2:28.30 | 194487 | 205616
13 | 45:41.42 | 4:10.59 | 205617 | 224425
14 | 49:52.26 | 3:25.74 | 224426 | 239874
15 | 53:18.25 | 3:48.18 | 239875 | 256992


Track 1

Filename C:\cuntfist\FLAC\Brian Posehn - The Fartist (2013) [FLAC] {New Wave Dynamics}\01 - For My Wife.wav

Peak level 98.9 %
Extraction speed 4.5 X
Test CRC 160F175A
Copy CRC 160F175A
Accurately ripped (confidence 3) [BF9645AC] (AR v2)
Copy OK

Track 2

Filename C:\cuntfist\FLAC\Brian Posehn - The Fartist (2013) [FLAC] {New Wave Dynamics}\02 - Strippers And Stripping.wav

Peak level 98.9 %
Extraction speed 4.5 X
Test CRC 26D3057A
Copy CRC 26D3057A
Accurately ripped (confidence 3) [7B000DD5] (AR v2)
Copy OK

Track 3

Filename C:\cuntfist\FLAC\Brian Posehn - The Fartist (2013) [FLAC] {New Wave Dynamics}\03 - The Tale Of A Stripper.wav

Peak level 98.9 %
Extraction speed 5.2 X
Test CRC 2CEB1EC8
Copy CRC 2CEB1EC8
Accurately ripped (confidence 3) [7C95DFC0] (AR v2)
Copy OK

Track 4

Filename C:\cuntfist\FLAC\Brian Posehn - The Fartist (2013) [FLAC] {New Wave Dynamics}\04 - Quitting Weed.wav

Peak level 98.9 %
Extraction speed 5.4 X
Test CRC D2BB11BD
Copy CRC D2BB11BD
Accurately ripped (confidence 3) [0574889A] (AR v2)
Copy OK

Track 5

Filename C:\cuntfist\FLAC\Brian Posehn - The Fartist (2013) [FLAC] {New Wave Dynamics}\05 - The Scariest Pot Story Ever Told.wav

Timing problem 0:04:18

Peak level 98.9 %
Extraction speed 5.4 X
Test CRC 0CF4F1AF
Copy CRC 0CF4F1AF
Accurately ripped (confidence 3) [54B41584] (AR v2)
Copy finished

Track 6

Filename C:\cuntfist\FLAC\Brian Posehn - The Fartist (2013) [FLAC] {New Wave Dynamics}\06 - Do Not Punch My Baby.wav

Peak level 98.9 %
Extraction speed 6.4 X
Test CRC 2137A3FB
Copy CRC 2137A3FB
Accurately ripped (confidence 3) [EF89E21D] (AR v2)
Copy OK

Track 7

Filename C:\cuntfist\FLAC\Brian Posehn - The Fartist (2013) [FLAC] {New Wave Dynamics}\07 - Um… My Farts.wav

Peak level 98.9 %
Extraction speed 6.8 X
Test CRC 1810496A
Copy CRC 1810496A
Accurately ripped (confidence 3) [7612A394] (AR v2)
Copy OK

Track 8

Filename C:\cuntfist\FLAC\Brian Posehn - The Fartist (2013) [FLAC] {New Wave Dynamics}\08 - My Fart Meets Someone Famous.wav

Peak level 98.9 %
Extraction speed 7.3 X
Test CRC A1AC2C68
Copy CRC A1AC2C68
Accurately ripped (confidence 3) [E8E7F038] (AR v2)
Copy OK

Track 9

Filename C:\cuntfist\FLAC\Brian Posehn - The Fartist (2013) [FLAC] {New Wave Dynamics}\09 - Getting Old.wav

Peak level 98.9 %
Extraction speed 7.9 X
Test CRC 0BE0C4A5
Copy CRC 0BE0C4A5
Accurately ripped (confidence 3) [BF7A37C2] (AR v2)
Copy OK

Track 10

Filename C:\cuntfist\FLAC\Brian Posehn - The Fartist (2013) [FLAC] {New Wave Dynamics}\10 - The Acopapypse.wav

Peak level 98.9 %
Extraction speed 8.4 X
Test CRC 34DE3B49
Copy CRC 34DE3B49
Accurately ripped (confidence 3) [525D7770] (AR v2)
Copy OK

Track 11

Filename C:\cuntfist\FLAC\Brian Posehn - The Fartist (2013) [FLAC] {New Wave Dynamics}\11 - Weird Al.wav

Peak level 98.9 %
Extraction speed 8.6 X
Test CRC 04BFDDA4
Copy CRC 04BFDDA4
Accurately ripped (confidence 3) [722D0A0B] (AR v2)
Copy OK

Track 12

Filename C:\cuntfist\FLAC\Brian Posehn - The Fartist (2013) [FLAC] {New Wave Dynamics}\12 - Taking Care Of Business.wav

Peak level 98.9 %
Extraction speed 8.8 X
Test CRC 7384C9EF
Copy CRC 7384C9EF
Accurately ripped (confidence 3) [9BDEFAC8] (AR v2)
Copy OK

Track 13

Filename C:\cuntfist\FLAC\Brian Posehn - The Fartist (2013) [FLAC] {New Wave Dynamics}\13 - Getting Back On The Horse.wav

Peak level 98.9 %
Extraction speed 8.5 X
Test CRC 4D866508
Copy CRC 4D866508
Accurately ripped (confidence 3) [6AFF5178] (AR v2)
Copy OK

Track 14

Filename C:\cuntfist\FLAC\Brian Posehn - The Fartist (2013) [FLAC] {New Wave Dynamics}\14 - Dirty Jokes.wav

Peak level 98.9 %
Extraction speed 9.1 X
Test CRC 37083780
Copy CRC 37083780
Accurately ripped (confidence 3) [8618B20A] (AR v2)
Copy OK

Track 15

Filename C:\cuntfist\FLAC\Brian Posehn - The Fartist (2013) [FLAC] {New Wave Dynamics}\15 - Star Wars, Part 3 (Yes, I'm Still Mad About Star Wars).wav

Peak level 100.0 %
Extraction speed 9.3 X
Test CRC BE018D32
Copy CRC BE018D32
Accurately ripped (confidence 3) [07886C39] (AR v2)
Copy OK


All tracks accurately ripped

No errors occurred

End of status report

–– CUETools DB Plugin V2.1.6

[CTDB TOCID: aBpsU8mysUUx0VxsQbbaTnmG5pw-] found
Submit result: aBpsU8mysUUx0VxsQbbaTnmG5pw- has been confirmed
Track | CTDB Status
1 | (3/3) Accurately ripped
2 | (3/3) Accurately ripped
3 | (3/3) Accurately ripped
4 | (3/3) Accurately ripped
5 | (3/3) Accurately ripped
6 | (3/3) Accurately ripped
7 | (3/3) Accurately ripped
8 | (3/3) Accurately ripped
9 | (3/3) Accurately ripped
10 | (3/3) Accurately ripped
11 | (3/3) Accurately ripped
12 | (3/3) Accurately ripped
13 | (3/3) Accurately ripped
14 | (3/3) Accurately ripped
15 | (3/3) Accurately ripped


==== Log checksum 02B3F13B8B439CEB0698F0102D085EBFD49529D6CDF428323905FC512414A811 ====


Brian Posehn - The Fartist (2013) {New Wave Dynamics}