Subcategories
Tags
Language
Tags

Bill Summers - Feel The Heat (1977) {1993 Prestige Japan}

Posted By: TestTickles
Bill Summers - Feel The Heat (1977) {1993 Prestige Japan}

Bill Summers - Feel The Heat (1977) {1993 Prestige Japan}
EAC Rip | FLAC with CUE and log | scans | 237 mb
MP3 CBR 320kbps | RAR | 90 mb
Genre: jazz, jazz-funk, Latin jazz

Feel The Heat is the 1977 debut album by percussionist Bill Summers. This is the first digital release from 1993, released in Japan by Prestige Records.

Bill Summers - Feel The Heat (1977) {1993 Prestige Japan}

1. Just A Matter Of Time (Before The Beat Gets Your Mind) (4:45)
2. Come Into My Life (3:41)
3. People Know (3:42)
4. No One (4:05)
5. Brazilian Skies (4:32)
6. Check It Out (5:26)
7. Que Sabroso (5:38)
8. Drum Suite (6:35)

Bill Summers - congas, percussion
Mark Soskin - keyboards
Skip Scarborough - keyboards
Ray Obiedo - guitar
Paul Jackson - bass
Fred Berry - horns
Julian Priester - horns
Hadley Caliman - horns
Jose Hernandez - horns
Myron Mu - horns
Roger Glenn - horns
Alphonse Mouzon - drums
Mikki Morris - vocals
Deborah Thomas - vocals
Diane Reeves - vocals
Charles Meeks - vocals
Pete Escovedo - vocals
Sigidi - vocals

Produced by Skip Scarborough
Engineered by Phil Kaffel
Assistant engineer: Steve Williams
Recorded at Fantasy Studios, Berkeley, California in 1977

Exact Audio Copy V1.0 beta 3 from 29. August 2011

EAC extraction logfile from 6. July 2013, 09:21

Bill Summers / Feel The Heat

Used drive : Optiarc DVD RW AD-7930H Adapter: 0 ID: 1

Read mode : Secure
Utilize accurate stream : Yes
Defeat audio cache : Yes
Make use of C2 pointers : No

Read offset correction : 48
Overread into Lead-In and Lead-Out : No
Fill up missing offset samples with silence : Yes
Delete leading and trailing silent blocks : No
Null samples used in CRC calculations : Yes
Used interface : Native Win32 interface for Win NT & 2000
Gap handling : Appended to previous track

Used output format : Internal WAV Routines
Sample format : 44.100 Hz; 16 Bit; Stereo

TOC of the extracted CD

Track | Start | Length | Start sector | End sector
––––––––––––––––––––––––––––-
1 | 0:00.37 | 4:44.42 | 37 | 21378
2 | 4:45.04 | 3:40.68 | 21379 | 37946
3 | 8:25.72 | 3:42.12 | 37947 | 54608
4 | 12:08.09 | 4:05.28 | 54609 | 73011
5 | 16:13.37 | 4:31.50 | 73012 | 93386
6 | 20:45.12 | 5:25.40 | 93387 | 117801
7 | 26:10.52 | 5:37.70 | 117802 | 143146
8 | 31:48.47 | 6:35.02 | 143147 | 172773

Track 1

Filename C:\cuntfist\FLAC\Bill Summers - Feel The Heat (1977) [FLAC] {1993 Prestige Japan}\01 - Just A Matter Of Time (Before The Beat Gets Your Mind).wav

Pre-gap length 0:00:02.37

Peak level 73.4 %
Extraction speed 2.8 X
Track quality 100.0 %
Test CRC EBF563D0
Copy CRC EBF563D0
Track not present in AccurateRip database
Copy OK

Track 2

Filename C:\cuntfist\FLAC\Bill Summers - Feel The Heat (1977) [FLAC] {1993 Prestige Japan}\02 - Come Into My Life.wav

Pre-gap length 0:00:01.54

Peak level 86.5 %
Extraction speed 3.1 X
Track quality 100.0 %
Test CRC 5A5632A8
Copy CRC 5A5632A8
Track not present in AccurateRip database
Copy OK

Track 3

Filename C:\cuntfist\FLAC\Bill Summers - Feel The Heat (1977) [FLAC] {1993 Prestige Japan}\03 - People Know.wav

Pre-gap length 0:00:00.24

Peak level 78.3 %
Extraction speed 3.3 X
Track quality 100.0 %
Test CRC 6A79583E
Copy CRC 6A79583E
Track not present in AccurateRip database
Copy OK

Track 4

Filename C:\cuntfist\FLAC\Bill Summers - Feel The Heat (1977) [FLAC] {1993 Prestige Japan}\04 - No One.wav

Pre-gap length 0:00:01.24

Peak level 69.4 %
Extraction speed 3.0 X
Track quality 99.9 %
Test CRC 5AA52978
Copy CRC 5AA52978
Track not present in AccurateRip database
Copy OK

Track 5

Filename C:\cuntfist\FLAC\Bill Summers - Feel The Heat (1977) [FLAC] {1993 Prestige Japan}\05 - Brazilian Skies.wav

Pre-gap length 0:00:01.34

Peak level 71.2 %
Extraction speed 4.0 X
Track quality 100.0 %
Test CRC 4AF214E8
Copy CRC 4AF214E8
Track not present in AccurateRip database
Copy OK

Track 6

Filename C:\cuntfist\FLAC\Bill Summers - Feel The Heat (1977) [FLAC] {1993 Prestige Japan}\06 - Check It Out.wav

Pre-gap length 0:00:01.24

Peak level 79.5 %
Extraction speed 4.3 X
Track quality 100.0 %
Test CRC 9AC73D51
Copy CRC 9AC73D51
Track not present in AccurateRip database
Copy OK

Track 7

Filename C:\cuntfist\FLAC\Bill Summers - Feel The Heat (1977) [FLAC] {1993 Prestige Japan}\07 - Que Sabroso.wav

Pre-gap length 0:00:02.12

Peak level 75.2 %
Extraction speed 4.6 X
Track quality 100.0 %
Test CRC AAFCD316
Copy CRC AAFCD316
Track not present in AccurateRip database
Copy OK

Track 8

Filename C:\cuntfist\FLAC\Bill Summers - Feel The Heat (1977) [FLAC] {1993 Prestige Japan}\08 - Drum Suite.wav

Pre-gap length 0:00:03.02

Peak level 74.9 %
Extraction speed 5.0 X
Track quality 100.0 %
Test CRC CCCA4433
Copy CRC CCCA4433
Track not present in AccurateRip database
Copy OK

None of the tracks are present in the AccurateRip database

No errors occurred

End of status report

==== Log checksum 913F07D785024CAED6723D8D3B73B4264B8E8EFAC18DF7E5D19D0429BA29A6E9 ====


Bill Summers - Feel The Heat (1977) {1993 Prestige Japan}


Thank you to the original uploader.