Subcategories

A Perfect Circle - Thirteenth Step (2003)

Posted By: gribovar
A Perfect Circle - Thirteenth Step (2003)

A Perfect Circle - Thirteenth Step (2003)
EAC Rip | FLAC (tracks+.cue+log) - 316 MB | MP3 CBR 320 kbps (LAME 3.93) - 119 MB | Covers - 43 MB
Genre: Alternative Rock | RAR 3% Rec. | Label: Virgin Records America (7243 5 83439 2)

Formed by Tool frontman Maynard James Keenan and former Tool guitar tech Billy Howerdel, A Perfect Circle is an extension of the alt-metal-fused-with-art rock style popularized by Tool in the early to mid-'90s. While similar to Tool in intensity and melancholy, A Perfect Circle is less dark and more melodic, with a theatrical, ambient quality that incorporates occasional strings and unusual instrumentation.
"Thirteenth Step" is the second studio album by A Perfect Circle, released on September 16, 2003. The album sold well, charting at the number 2 position on the Billboard 200 in its premiere week, selling over 231,000 copies and staying on the charts for 78 weeks. The album went on to be certified as gold on November 4, 2003 and as platinum on March 24, 2006 by the RIAA. Three singles were released from the album, "Weak and Powerless", which topped both the Mainstream Rock Tracks and Modern Rock Tracks, followed by "The Outsider" and "Blue", which also charted on the respective charts.
Tracklist:
01. The Package
02. Weak and Powerless
03. The Noose
04. Blue
05. Vanishing
06. A Stranger
07. The Outsider
08. Crimes
09. The Nurse Who Loved Me
10. Pet
11. Lullaby
12. Gravity

Total time: 50:34

Exact Audio Copy V1.0 beta 3 from 29. August 2011

EAC extraction logfile from 27. July 2014, 14:53

A Perfect Circle / Thirteenth Step

Used drive : Optiarc DVD RW AD-5280S Adapter: 1 ID: 1

Read mode : Secure
Utilize accurate stream : Yes
Defeat audio cache : Yes
Make use of C2 pointers : No

Read offset correction : 48
Overread into Lead-In and Lead-Out : No
Fill up missing offset samples with silence : Yes
Delete leading and trailing silent blocks : No
Null samples used in CRC calculations : Yes
Used interface : Native Win32 interface for Win NT & 2000
Gap handling : Appended to previous track

Used output format : User Defined Encoder
Selected bitrate : 128 kBit/s
Quality : High
Add ID3 tag : No
Command line compressor : C:\Program Files\Exact Audio Copy\FLAC\FLAC.EXE
Additional command line options : -V -8 -T "Genre=%genre%" -T "Artist=%artist%" -T "Title=%title%" -T "Album=%albumtitle%" -T "Date=%year%" -T "Tracknumber=%tracknr%" -T "Comment=%comment%" %source%


TOC of the extracted CD

Track | Start | Length | Start sector | End sector
––––––––––––––––––––––––––––-
1 | 0:00.00 | 7:40.37 | 0 | 34536
2 | 7:40.37 | 3:15.10 | 34537 | 49171
3 | 10:55.47 | 4:53.13 | 49172 | 71159
4 | 15:48.60 | 4:13.50 | 71160 | 90184
5 | 20:02.35 | 4:51.35 | 90185 | 112044
6 | 24:53.70 | 3:12.25 | 112045 | 126469
7 | 28:06.20 | 4:06.00 | 126470 | 144919
8 | 32:12.20 | 2:34.72 | 144920 | 156541
9 | 34:47.17 | 4:04.58 | 156542 | 174899
10 | 38:52.00 | 4:34.25 | 174900 | 195474
11 | 43:26.25 | 2:01.72 | 195475 | 204621
12 | 45:28.22 | 5:06.03 | 204622 | 227574


Track 1

Filename A:\Thirteenth Step\01 The Package.wav

Pre-gap length 0:00:02.00

Peak level 98.8 %
Extraction speed 2.5 X
Track quality 99.9 %
Test CRC BF807633
Copy CRC BF807633
Accurately ripped (confidence 3) [30352459] (AR v1)
Copy OK

Track 2

Filename A:\Thirteenth Step\02 Weak And Powerless.wav

Peak level 98.8 %
Extraction speed 2.7 X
Track quality 100.0 %
Test CRC 3DE81E67
Copy CRC 3DE81E67
Accurately ripped (confidence 3) [F3C59F55] (AR v1)
Copy OK

Track 3

Filename A:\Thirteenth Step\03 The Noose.wav

Peak level 100.0 %
Extraction speed 3.1 X
Track quality 100.0 %
Test CRC DCEAAD5D
Copy CRC DCEAAD5D
Accurately ripped (confidence 3) [45748777] (AR v1)
Copy OK

Track 4

Filename A:\Thirteenth Step\04 Blue.wav

Peak level 98.8 %
Extraction speed 3.3 X
Track quality 100.0 %
Test CRC CEC04DE0
Copy CRC CEC04DE0
Accurately ripped (confidence 4) [2AC33367] (AR v1)
Copy OK

Track 5

Filename A:\Thirteenth Step\05 Vanishing.wav

Peak level 98.8 %
Extraction speed 3.2 X
Track quality 99.9 %
Test CRC 7139F352
Copy CRC 7139F352
Accurately ripped (confidence 3) [3F307F51] (AR v1)
Copy OK

Track 6

Filename A:\Thirteenth Step\06 A Stranger.wav

Peak level 69.9 %
Extraction speed 3.6 X
Track quality 100.0 %
Test CRC F035F667
Copy CRC F035F667
Accurately ripped (confidence 3) [BEA3B87B] (AR v1)
Copy OK

Track 7

Filename A:\Thirteenth Step\07 The Outsider.wav

Peak level 98.8 %
Extraction speed 3.4 X
Track quality 99.9 %
Test CRC 3180A096
Copy CRC 3180A096
Accurately ripped (confidence 3) [C7DD6D57] (AR v1)
Copy OK

Track 8

Filename A:\Thirteenth Step\08 Crimes.wav

Peak level 62.3 %
Extraction speed 3.7 X
Track quality 100.0 %
Test CRC 7BCAF226
Copy CRC 7BCAF226
Accurately ripped (confidence 3) [AA618FE3] (AR v1)
Copy OK

Track 9

Filename A:\Thirteenth Step\09 The Nurse Who Loved Me.wav

Peak level 62.3 %
Extraction speed 4.1 X
Track quality 100.0 %
Test CRC 4EC55160
Copy CRC 4EC55160
Accurately ripped (confidence 3) [F08CD513] (AR v1)
Copy OK

Track 10

Filename A:\Thirteenth Step\10 Pet.wav

Peak level 98.8 %
Extraction speed 4.3 X
Track quality 100.0 %
Test CRC 4501791A
Copy CRC 4501791A
Accurately ripped (confidence 3) [30EC5BD7] (AR v1)
Copy OK

Track 11

Filename A:\Thirteenth Step\11 Lullaby.wav

Peak level 54.7 %
Extraction speed 3.9 X
Track quality 100.0 %
Test CRC C20889BC
Copy CRC C20889BC
Accurately ripped (confidence 3) [0527B5F3] (AR v1)
Copy OK

Track 12

Filename A:\Thirteenth Step\12 Gravity.wav

Peak level 98.8 %
Extraction speed 4.6 X
Track quality 100.0 %
Test CRC 9370D97A
Copy CRC 9370D97A
Accurately ripped (confidence 3) [70E13327] (AR v1)
Copy OK


All tracks accurately ripped

No errors occurred

End of status report

–– CUETools DB Plugin V2.1.3

[CTDB TOCID: kiwTKZdyUNNt04cDaCsUApjFR8A-] found, Submit result: kiwTKZdyUNNt04cDaCsUApjFR8A- has been confirmed
[673e92c9] (3/5) Accurately ripped
[5e1b1a30] (1/5) Differs in 48 samples @40:19:54,40:26:64,40:42:72,40:50:59
[9a0c663b] (1/5) No match
You can use CUETools to repair this rip.


==== Log checksum 6270C7E12B8C827DFE638BCE23170FEB82B37058E7543F5DE471F581D7794123 ====

[CUETools log; Date: 01.07.2017 12:26:20; Version: 2.1.4]
[CTDB TOCID: kiwTKZdyUNNt04cDaCsUApjFR8A-] found.
Track | CTDB Status
1 | (4/6) Accurately ripped
2 | (4/6) Accurately ripped
3 | (4/6) Accurately ripped
4 | (4/6) Accurately ripped
5 | (4/6) Accurately ripped
6 | (4/6) Accurately ripped
7 | (4/6) Accurately ripped
8 | (4/6) Accurately ripped
9 | (4/6) Accurately ripped
10 | (3/6) Accurately ripped, or (1/6) differs in 48 samples @01:27:54,01:34:64,01:50:72,01:58:59
11 | (4/6) Accurately ripped
12 | (4/6) Accurately ripped
[AccurateRip ID: 00183993-00db974e-ab0bda0c] found.
Track [ CRC | V2 ] Status
01 [30352459|5574b4d1] (3+0/3) Accurately ripped
02 [f3c59f55|e278bb46] (3+0/3) Accurately ripped
03 [45748777|80d30134] (3+0/3) Accurately ripped
04 [2ac33367|c05f1ce7] (4+0/4) Accurately ripped
05 [3f307f51|4bda2609] (3+0/3) Accurately ripped
06 [bea3b87b|3b700b97] (3+0/3) Accurately ripped
07 [c7dd6d57|fba4f4b5] (3+0/3) Accurately ripped
08 [aa618fe3|b3951fb1] (3+0/3) Accurately ripped
09 [f08cd513|a6a6302e] (3+0/3) Accurately ripped
10 [30ec5bd7|e27d458e] (3+0/3) Accurately ripped
11 [0527b5f3|5ce411c6] (3+0/3) Accurately ripped
12 [70e13327|f4771d12] (3+0/3) Accurately ripped

Track Peak [ CRC32 ] [W/O NULL] [ LOG ]
– 100,0 [E2E23905] [84DF9C87]
01 98,8 [BF807633] [BBB421A8] CRC32
02 98,8 [3DE81E67] [618C6638] CRC32
03 100,0 [DCEAAD5D] [3C4D7EC2] CRC32
04 98,8 [CEC04DE0] [7461C50C] CRC32
05 98,8 [7139F352] [7FA0F833] CRC32
06 69,9 [F035F667] [4BEFC435] CRC32
07 98,8 [3180A096] [40789D76] CRC32
08 62,3 [7BCAF226] [186D894F] CRC32
09 62,3 [4EC55160] [69CC1917] CRC32
10 98,8 [4501791A] [28FEA448] CRC32
11 54,7 [C20889BC] [BECB88D7] CRC32
12 98,8 [9370D97A] [285E4F70] CRC32

Thanks to DMMANIAC

See also:
A Perfect Circle - 2 Albums (2000-2004)
Tool - 4 Albums [4CD+DVD] (1992-2001)