Subcategories

Accordo Dei Contrari - 2 Studio Albums (2007-2011)

Posted By: gribovar
Accordo Dei Contrari - 2 Studio Albums (2007-2011)

Accordo Dei Contrari - 2 Studio Albums (2007-2011)
EAC Rip | FLAC (image+.cue+log) - 588 MB | MP3 CBR 320 kbps (LAME 3.93) - 212 MB | Covers - 98 MB
Genre: Instrumental Progressive Rock | RAR 3% Rec. | Label: AltrOck, Self-released

Welcome to Accordo dei Contrari's music. The band is actually a unit of four different people, each with his own life, experience and (sometimes opposite) view-points. This is the reason for the name Accordo dei Contrari, which by the band's self-definition, means "Council of the Opposites". Accordo dei Contrari was formed in 2001 in Bologna, Italy, conceived as a vehicle for making original instrumental music. "Kinesis", released on AltrOck in 2007, was critically acclaimed and won the Progaward for the best Italian album of progressive rock in 2007. A second studio album, "Kublai", with special guest, Canterbury Scene notable Richard Sinclair, was delivered in 2011.

Accordo Dei Contrari - 2 Studio Albums (2007-2011)

Accordo Dei Contrari - Kinesis (2007)
EAC Rip | FLAC (image+.cue+log) - 290 MB | MP3 CBR 320 kbps (LAME 3.93) - 105 MB | Covers - 18 MB
Genre: Instrumental Progressive Rock | RAR 3% Rec. | Label: AltrOck (ALT 003)

Tracklist:
01. Lester
02. Meghiste Kinesis
03. ScalaQuadro
04. Gondwana
05. Anexelenkton
06. OM

Total time: 44:39

Exact Audio Copy V1.0 beta 3 from 29. August 2011

Отчёт EAC об извлечении, выполненном 23. февраля 2013, 19:30

Accordo Dei Contrari / Kinesis

Дисковод: TSSTcorpCDDVDW TS-L633C Adapter: 0 ID: 1

Режим чтения : Достоверность
Использование точного потока : Да
Отключение кэша аудио : Да
Использование указателей C2 : Нет

Коррекция смещения при чтении : 6
Способность читать области Lead-in и Lead-out : Нет
Заполнение пропущенных сэмплов тишиной : Да
Удаление блоков с тишиной в начале и конце : Нет
При вычислениях CRC использовались нулевые сэмплы : Да
Интерфейс : Встроенный Win32-интерфейс для Win NT/2000

Выходной формат : Внутренние WAV-операции
Формат сэмплов : 44.100 Гц; 16 бит; стерео


TOC извлечённого CD

Трек | Старт | Длительность | Начальный сектор | Конечный сектор
––––––––––––––––––––––––––––––––––-
1 | 0:00.00 | 7:16.42 | 0 | 32741
2 | 7:16.42 | 7:07.66 | 32742 | 64832
3 | 14:24.33 | 8:52.19 | 64833 | 104751
4 | 23:16.52 | 8:10.57 | 104752 | 141558
5 | 31:27.34 | 6:57.70 | 141559 | 172903
6 | 38:25.29 | 6:13.44 | 172904 | 200922


Характеристики диапазона извлечения и сообщения об ошибках

Выбранный диапазон

Имя файла C:\Users\Михаил\Desktop\Accordo Dei Contrari - Kinesis.wav

Пиковый уровень 99.9 %
Скорость извлечения 2.8 X
Качество диапазона 100.0 %
CRC копии 8A025911
Копирование… OK

Ошибок не произошло


AccurateRip: сводка

Трек 1 : извлечено точно (доверие 2) [27EE29E5] (AR v1)
Трек 2 : извлечено точно (доверие 2) [E92DDF94] (AR v1)
Трек 3 : извлечено точно (доверие 2) [F4B7E342] (AR v1)
Трек 4 : извлечено точно (доверие 2) [359984CC] (AR v1)
Трек 5 : извлечено точно (доверие 2) [FE972514] (AR v1)
Трек 6 : извлечено точно (доверие 2) [792CBDF5] (AR v1)

Все треки извлечены точно

Конец отчёта

[CUETools log; Date: 27.11.2016 21:04:35; Version: 2.1.4]
[CTDB TOCID: h4_r2h6EIvcNbCye8SR7doHHV6Y-] found.
Track | CTDB Status
1 | (3/3) Accurately ripped
2 | (3/3) Accurately ripped
3 | (3/3) Accurately ripped
4 | (3/3) Accurately ripped
5 | (3/3) Accurately ripped
6 | (3/3) Accurately ripped
[AccurateRip ID: 000af391-003a7390-600a7606] found.
Track [ CRC | V2 ] Status
01 [27ee29e5|d95b905c] (2+4/6) Accurately ripped
02 [e92ddf94|3905eca2] (2+4/6) Accurately ripped
03 [f4b7e342|b72b84bb] (2+4/6) Accurately ripped
04 [359984cc|d09abeeb] (2+4/6) Accurately ripped
05 [fe972514|81c58e8b] (2+4/6) Accurately ripped
06 [792cbdf5|1d44d193] (2+4/6) Accurately ripped

Track Peak [ CRC32 ] [W/O NULL] [ LOG ]
– 99,9 [8A025911] [0DDABA1F] CRC32
01 99,9 [1583D505] [6328764A]
02 99,9 [FF7C9F4C] [92450D4C]
03 99,9 [DD9EE21B] [BAC1CD78]
04 99,9 [979D7B25] [1096E4CB]
05 99,9 [84BF438F] [141EA6C5]
06 99,9 [457201E8] [AE0C1ADF]

Accordo Dei Contrari - 2 Studio Albums (2007-2011)

Accordo Dei Contrari - Kublai (2011)
EAC Rip | FLAC (image+.cue+log) - 298 MB | MP3 CBR 320 kbps (LAME 3.93) - 107 MB | Covers - 80 MB
Genre: Instrumental Progressive Rock | RAR 3% Rec. | Label: Self-released

Tracklist:
01. G.B. Evidence
02. Arabesque
03. Dark Magus
04. L'ombra di un Sogno (feat. Richard Sinclair)
05. Più Limpida e Chiara di Ogni Impressione Vissuta, Part I
06. Battery Park

Total time: 45:32

Exact Audio Copy V1.0 beta 3 from 29. August 2011

EAC extraction logfile from 21. February 2013, 11:17

Accordo dei Contrari / Kublai

Used drive : ASUS DRW-1608P3S Adapter: 1 ID: 1

Read mode : Secure
Utilize accurate stream : Yes
Defeat audio cache : Yes
Make use of C2 pointers : No

Read offset correction : 48
Overread into Lead-In and Lead-Out : Yes
Fill up missing offset samples with silence : Yes
Delete leading and trailing silent blocks : No
Null samples used in CRC calculations : Yes
Used interface : Installed external ASPI interface

Used output format : Internal WAV Routines
Sample format : 44.100 Hz; 16 Bit; Stereo


TOC of the extracted CD

Track | Start | Length | Start sector | End sector
––––––––––––––––––––––––––––-
1 | 0:00.00 | 5:18.63 | 0 | 23912
2 | 5:18.63 | 12:32.15 | 23913 | 80327
3 | 17:51.03 | 9:00.13 | 80328 | 120840
4 | 26:51.16 | 6:55.31 | 120841 | 151996
5 | 33:46.47 | 5:07.49 | 151997 | 175070
6 | 38:54.21 | 6:37.19 | 175071 | 204864


Range status and errors

Selected range

Filename E:\bzp01\Accordo dei Contrari - Kublai\Accordo dei Contrari - Kublai.wav

Peak level 98.8 %
Extraction speed 6.9 X
Range quality 100.0 %
Test CRC 793A2842
Copy CRC 793A2842
Copy OK

No errors occurred


AccurateRip summary

Track 1 accurately ripped (confidence 1) [90DBB6B5] (AR v1)
Track 2 accurately ripped (confidence 1) [BDEAF127] (AR v1)
Track 3 accurately ripped (confidence 1) [7BE78F27] (AR v1)
Track 4 accurately ripped (confidence 1) [91671D15] (AR v1)
Track 5 accurately ripped (confidence 1) [33968A08] (AR v1)
Track 6 accurately ripped (confidence 1) [AF75888F] (AR v1)

All tracks accurately ripped

End of status report

==== Log checksum E0265BDB4E94FF13DF0C7A546B837666C052EB6839222EBF7ADC7CF444E7B64E ====

[CUETools log; Date: 27.11.2016 21:05:26; Version: 2.1.4]
[CTDB TOCID: KTr7ptW9ZsjAn9CoSl6yIJO4Lds-] found.
Track | CTDB Status
1 | (3/3) Accurately ripped
2 | (3/3) Accurately ripped
3 | (3/3) Accurately ripped
4 | (3/3) Accurately ripped
5 | (3/3) Accurately ripped
6 | (3/3) Accurately ripped
[AccurateRip ID: 000b8d17-003d4a01-370aab06] found.
Track [ CRC | V2 ] Status
01 [90dbb6b5|5228e383] (0+7/7) Accurately ripped
02 [bdeaf127|863f5172] (0+7/7) Accurately ripped
03 [7be78f27|f8cdb362] (0+7/7) Accurately ripped
04 [91671d15|d1d31ad2] (0+7/7) Accurately ripped
05 [33968a08|76502156] (0+7/7) Accurately ripped
06 [af75888f|2d952698] (0+7/7) Accurately ripped

Track Peak [ CRC32 ] [W/O NULL] [ LOG ]
– 98,8 [793A2842] [FB4F452F] CRC32
01 98,8 [AD980D7F] [A36F7D46]
02 98,8 [7B12628A] [8678D7C5]
03 98,8 [3E26521B] [D1DE0609]
04 98,8 [FF7E1CEB] [FF0B6421]
05 98,8 [5527B79B] [90F331DD]
06 98,8 [68BA10C2] [C914C8DE]

Thanks to Amchanin 1970 & bzp01