Subcategories
Tags
Language
Tags

Ace of Base - The Bridge (1995) Japanese Edition

Posted By: Designol
Ace of Base - The Bridge (1995) Japanese Edition

Ace of Base - The Bridge (1995) Japanese Edition
EAC | FLAC | Image (Cue&Log) ~ 520 Mb | Mp3 (CBR320) ~ 179 Mb | Scans ~ 192 Mb
Pop, Dance-Pop | Label: Arista | # BVCA-680 | Time: 01:18:01

The Bridge is the second album by Swedish pop music group Ace of Base. It was composed during 1994 and 1995, and released in October 1995. It is the only Ace of Base album to feature sizable contributions of writing, production, vocals, and harmonies by all four band members, each having an important part in its creation. The album was preceded by the singles "Beautiful Life" and "Lucky Love", which had varied levels of success. Both songs reached the top of the US Billboard Hot Dance Club Play chart and "Beautiful Life" peaked at number 15 on the US Billboard Hot 100, "Lucky Love" reaching number 30.

Ace of Base's sequel to their multi-platinum debut The Sign sounds like the same record on the surface. There are the same bouncy Europop beats, ingratiatingly catchy melodies, and shiny production. However, underneath that gloss is an improved sense of songwriting. Ace of Base still might not be innovators, but they don't need to be. Instead, they turn out tightly constructed pop songs that are better written than they appear – songs like the hit "Beautiful Life" would sound good in different arrangements or if they were performed acoustically. And the songs on The Bridge are, overall, better than the ones on The Sign. Ace of Base might not be able to replicate the phenomenal success of their debut, but they have managed to deliver an album that is just as satisfying.

Review by Stephen Thomas Erlewine, Allmusic.com

Ace of Base - The Bridge (1995) Japanese Edition



Tracklist:

01. Beautiful Life (3:40)
02. Never Gonna Say I'm Sorry (3:15)
03. Lucky Love (2:54)
04. Edge of Heaven (3:49)
05. Strange Ways (4:26)
06. Ravine (4:40)
07. Perfect World (3:55)
08. Angel Eyes (3:13)
09. Whispers In Blindness (4:11)
10. My Deja Vu (3:39)
11. You And I (4:07)
12. Wave Wet Sand (3:18)
13. Que Sera (3:47)
14. Just 'N' Image (3:08)
15. Experience Pearls (3:57)
16. Blooming 18 (3:38)
17. Beautiful Life (Vission Lorimer Club Mix) (7:02)
18. Lucky Love (Armand Van Helden House Mix) (11:22)


Exact Audio Copy V1.0 beta 1 from 15. November 2010

Отчёт EAC об извлечении, выполненном 3. февраля 2011, 17:10

Ace of Base / The Bridge (Japan)

Дисковод: PIONEER DVD-RW DVR-218L Adapter: 1 ID: 0

Режим чтения : Достоверность
Использование точного потока : Да
Отключение кэша аудио : Да
Использование указателей C2 : Нет

Коррекция смещения при чтении : 6
Способность читать области Lead-in и Lead-out : Нет
Заполнение пропущенных сэмплов тишиной : Да
Удаление блоков с тишиной в начале и конце : Нет
При вычислениях CRC использовались нулевые сэмплы : Да
Интерфейс : Встроенный Win32-интерфейс для Win NT/2000

Выходной формат : Внутренние WAV-операции
Формат сэмплов : 44.100 Гц; 16 бит; стерео


TOC извлечённого CD

Трек | Старт | Длительность | Начальный сектор | Конечный сектор
––––––––––––––––––––––––––––––––––-
1 | 0:00.37 | 3:39.63 | 37 | 16524
2 | 3:40.25 | 3:15.37 | 16525 | 31186
3 | 6:55.62 | 2:53.38 | 31187 | 44199
4 | 9:49.25 | 3:49.05 | 44200 | 61379
5 | 13:38.30 | 4:26.00 | 61380 | 81329
6 | 18:04.30 | 4:39.62 | 81330 | 102316
7 | 22:44.17 | 3:55.35 | 102317 | 119976
8 | 26:39.52 | 3:12.60 | 119977 | 134436
9 | 29:52.37 | 4:10.50 | 134437 | 153236
10 | 34:03.12 | 3:39.25 | 153237 | 169686
11 | 37:42.37 | 4:06.50 | 169687 | 188186
12 | 41:49.12 | 3:18.33 | 188187 | 203069
13 | 45:07.45 | 3:47.30 | 203070 | 220124
14 | 48:55.00 | 3:07.52 | 220125 | 234201
15 | 52:02.52 | 3:56.73 | 234202 | 251974
16 | 55:59.50 | 3:38.00 | 251975 | 268324
17 | 59:37.50 | 7:01.50 | 268325 | 299949
18 | 66:39.25 | 11:22.12 | 299950 | 351111


Характеристики диапазона извлечения и сообщения об ошибках

Выбранный диапазон

Имя файла D:\Музыка\Dance Hits Collection\Ace Of Base - The Bridge (Japan) BVCA-680 [1995]\Ace of Base - The Bridge (Japan).wav

Пиковый уровень 100.0 %
Скорость извлечения 0.3 X
Качество диапазона 100.0 %
CRC теста F4DB6A3B
CRC копии F4DB6A3B
Копирование… OK

Ошибок не произошло


AccurateRip: сводка

Трек 1 : извлечено точно (доверие 1) [A0F5EF8D]
Трек 2 : извлечено точно (доверие 1) [AD8E180E]
Трек 3 : извлечено точно (доверие 1) [FFBF488B]
Трек 4 : извлечено точно (доверие 1) [5083EFBA]
Трек 5 : извлечено точно (доверие 1) [C295A93C]
Трек 6 : извлечено точно (доверие 1) [63E08F38]
Трек 7 : извлечено точно (доверие 1) [344E783D]
Трек 8 : извлечено точно (доверие 1) [36997413]
Трек 9 : извлечено точно (доверие 1) [5A5602BF]
Трек 10 : извлечено точно (доверие 1) [5740A7C1]
Трек 11 : извлечено точно (доверие 1) [A0BDF726]
Трек 12 : извлечено точно (доверие 1) [F49051B3]
Трек 13 : извлечено точно (доверие 1) [F57E3672]
Трек 14 : извлечено точно (доверие 1) [0B38979A]
Трек 15 : извлечено точно (доверие 1) [67FB9496]
Трек 16 : извлечено точно (доверие 1) [A4C92986]
Трек 17 : извлечено точно (доверие 1) [1B495312]
Трек 18 : извлечено точно (доверие 1) [7287C1C0]

Все треки извлечены точно

Конец отчёта

[CUETools log; Date: 05.10.2018 22:08:23; Version: 2.1.4]
Pregap length 00:00:37.
[CTDB TOCID: z6wcMeR.pVgMccp__xsAXC4uWbI-] found.
Track | CTDB Status
1 | (20/20) Accurately ripped
2 | (20/20) Accurately ripped
3 | (20/20) Accurately ripped
4 | (20/20) Accurately ripped
5 | (19/20) Accurately ripped
6 | (19/20) Accurately ripped
7 | (19/20) Accurately ripped
8 | (20/20) Accurately ripped
9 | (20/20) Accurately ripped
10 | (19/20) Accurately ripped
11 | (19/20) Accurately ripped
12 | (19/20) Accurately ripped
13 | (19/20) Accurately ripped
14 | (19/20) Accurately ripped
15 | (20/20) Accurately ripped
16 | (20/20) Accurately ripped
17 | (19/20) Accurately ripped
18 | (14/20) Accurately ripped
[AccurateRip ID: 002cba3c-025b5336-e6124912] found.
Track [ CRC | V2 ] Status
01 [a0f5ef8d|bab3cf35] (02+02/10) Accurately ripped
02 [ad8e180e|97777239] (00+02/08) Accurately ripped
03 [ffbf488b|93686e1b] (00+02/08) Accurately ripped
04 [5083efba|eb5b1ca0] (00+02/08) Accurately ripped
05 [c295a93c|cd607051] (00+02/08) Accurately ripped
06 [63e08f38|5ec4be73] (00+02/08) Accurately ripped
07 [344e783d|26ef6116] (00+02/08) Accurately ripped
08 [36997413|c629a1a5] (00+02/08) Accurately ripped
09 [5a5602bf|e141ba51] (00+02/08) Accurately ripped
10 [5740a7c1|391793ec] (00+02/07) Accurately ripped
11 [a0bdf726|ec74b922] (00+02/08) Accurately ripped
12 [f49051b3|d002f1ce] (00+02/08) Accurately ripped
13 [f57e3672|f93bee65] (00+02/08) Accurately ripped
14 [0b38979a|30af6606] (00+02/08) Accurately ripped
15 [67fb9496|06bed72c] (00+02/08) Accurately ripped
16 [a4c92986|a607d3f9] (00+02/08) Accurately ripped
17 [1b495312|cd38023a] (00+02/08) Accurately ripped
18 [7287c1c0|e25cedd7] (00+02/08) Accurately ripped
Offsetted by -294:
01 [2956294b] (02/10) Accurately ripped
02 [5ae0757e] (02/08) Accurately ripped
03 [ca7a80e5] (02/08) Accurately ripped
04 [7397bbd4] (02/08) Accurately ripped
05 [c4fce250] (02/08) Accurately ripped
06 [2f7edddc] (02/08) Accurately ripped
07 [5fa65141] (02/08) Accurately ripped
08 [83e50843] (02/08) Accurately ripped
09 [398382e7] (02/08) Accurately ripped
10 [7124eaf9] (02/07) Accurately ripped
11 [bece1532] (02/08) Accurately ripped
12 [84a34f37] (02/08) Accurately ripped
13 [23213efc] (02/08) Accurately ripped
14 [028ef35c] (02/08) Accurately ripped
15 [35ff4ef2] (02/08) Accurately ripped
16 [472904b4] (02/08) Accurately ripped
17 [c8fc430c] (02/08) Accurately ripped
18 [0203e9f0] (02/08) Accurately ripped

Track Peak [ CRC32 ] [W/O NULL] [ LOG ]
– 100,0 [F4DB6A3B] [F693E2A4] CRC32
01 97,7 [1D98003D] [73AB4450]
02 97,7 [ABEB02DF] [7818E02C]
03 100,0 [B73872C0] [2663F6C3]
04 88,4 [3F048E0B] [4D657748]
05 100,0 [92CF8149] [04C1BC47]
06 87,3 [9112B7DB] [6A62344E]
07 97,7 [A24BFAB1] [9D99E657]
08 92,8 [C17834F3] [3374D3BF]
09 99,8 [6046EA31] [5E728F90]
10 100,0 [FD01B06A] [B976E92F]
11 87,0 [2A087CC4] [C8B2C68E]
12 97,7 [C74C4383] [0FCE58CA]
13 97,7 [5866D3CC] [58BF0F0D]
14 97,7 [670423EA] [7411B9A0]
15 94,5 [4635991D] [A8BD8CE0]
16 97,7 [7D5B68FE] [7885792C]
17 99,4 [8098A5C9] [9AF4BE42]
18 100,0 [0109F83C] [973FFE38]

foobar2000 1.2 / Dynamic Range Meter 1.1.1
log date: 2018-10-05 22:20:56

––––––––––––––––––––––––––––––––––––––––
Analyzed: Ace of Base / The Bridge (Japan)
––––––––––––––––––––––––––––––––––––––––

DR Peak RMS Duration Track
––––––––––––––––––––––––––––––––––––––––
DR8 -0.20 dB -10.26 dB 3:40 01-Beautiful Life
DR9 -0.20 dB -10.28 dB 3:15 02-Never Gonna Say I'm Sorry
DR11 0.00 dB -12.52 dB 2:54 03-Lucky Love
DR9 -1.06 dB -12.87 dB 3:49 04-Edge of Heaven
DR10 0.00 dB -11.76 dB 4:26 05-Strange Ways
DR9 -1.18 dB -12.40 dB 4:40 06-Ravine
DR10 -0.20 dB -11.80 dB 3:55 07-Perfect World
DR9 -0.64 dB -11.81 dB 3:13 08-Angel Eyes
DR11 -0.02 dB -12.57 dB 4:11 09-Whispers In Blindness
DR9 0.00 dB -10.48 dB 3:39 10-My Deja Vu
DR8 -1.20 dB -10.34 dB 4:07 11-You And I
DR9 -0.20 dB -10.65 dB 3:18 12-Wave Wet Sand
DR9 -0.20 dB -11.93 dB 3:47 13-Que Sera
DR9 -0.20 dB -11.65 dB 3:08 14-Just 'N' Image
DR9 -0.49 dB -12.93 dB 3:57 15-Experience Pearls
DR10 -0.20 dB -11.82 dB 3:38 16-Blooming 18
DR11 -0.04 dB -12.84 dB 7:02 17-Beautiful Life (Vission Lorimer Club Mix)
DR13 0.00 dB -14.68 dB 11:22 18-Lucky Love (Armand Van Helden House Mix)
––––––––––––––––––––––––––––––––––––––––

Number of tracks: 18
Official DR value: DR10

Samplerate: 44100 Hz
Channels: 2
Bits per sample: 16
Bitrate: 930 kbps
Codec: FLAC
================================================================================

Ace of Base - The Bridge (1995) Japanese Edition

Ace of Base - The Bridge (1995) Japanese Edition

All thanks to original releaser - misterlazer

More interesting music in My Blog