Tags
Language
Tags

Aerosmith - 20th Century Masters: The Millennium Collection - The Best Of Aerosmith (2007)

Posted By: popsakov
Aerosmith - 20th Century Masters: The Millennium Collection - The Best Of Aerosmith (2007)

Aerosmith - 20th Century Masters: The Millennium Collection - The Best Of Aerosmith (2007)
EAC Rip | FLAC (Img) + Cue + Log ~ 520 Mb | MP3 CBR320 ~ 198 Mb
Full Scans | 01:00:39 | RAR 5% Recovery
Arena Rock, Classic Rock, Hard Rock | Geffen Records #B0001101-02

Those who do not pay much attention to record company affiliations should be warned that this discount-priced album, billed as the "best of Aerosmith," represents only their most popular recordings made for Geffen Records between 1987 and 1994. That said, it represents them well, including all 11 of Aerosmith's Top 40 hits from the period ("Angel," "Janie's Got a Gun," "Love in an Elevator," etc.), plus the track "Deuces Are Wild" from the album The Beavis and Butt-Head Experience. This, of course, was the period when the bandmembers were collaborating with such songwriting hacks as Desmond Child, Holly Knight, and Jim Vallance to considerable commercial effect, maintaining the comeback they had launched with Run-D.M.C.'s remake of "Walk This Way." Those who do not pay much attention to sonic trends in the record industry should be warned that while the album was "96k/24-bit mastered from the original master tapes by Erick Labson," Labson's mastering approach responds to the tendency toward preparing music for its compression into MP3 files for digital downloading more than for old-fashioned CD audiophile listening; Labson has adopted a "push up all the faders" sound that is overly loud and poorly detailed; the late Bruce Fairbairn, original producer of these recordings, must be turning over in his grave.

~ William Ruhlmann, All Music
Aerosmith - 20th Century Masters: The Millennium Collection - The Best Of Aerosmith (2007)


***************

Aerosmith - 20th Century Masters: The Millennium Collection - The Best Of Aerosmith (2007)

Track List:

01. Dude (Looks Like A Lady) [0:04:25.45]
02. Angel [0:05:08.37]
03. Rag Doll [0:04:26.43]
04. Love In An Elevator [0:05:23.60]
05. Janie's Got A Gun [0:05:30.12]
06. What It Takes [0:05:13.25]
07. The Other Side [0:04:08.10]
08. Livin' On The Edge [0:06:22.68]
09. Cryin' [0:05:10.27]
10. Crazy [0:05:18.60]
11. Deuces Are Wild [0:03:34.45]
12. Amazing [0:05:56.58]

Exact Audio Copy V1.0 beta 3 from 29. August 2011

EAC extraction logfile from 3. August 2015, 20:27

Aerosmith / The Millennium Collection. The Best Of

Used drive : ATAPI iHAS124 D Adapter: 0 ID: 2

Read mode : Secure
Utilize accurate stream : Yes
Defeat audio cache : Yes
Make use of C2 pointers : No

Read offset correction : 6
Overread into Lead-In and Lead-Out : No
Fill up missing offset samples with silence : Yes
Delete leading and trailing silent blocks : No
Null samples used in CRC calculations : Yes
Used interface : Installed external ASPI interface

Used output format : User Defined Encoder
Selected bitrate : 1024 kBit/s
Quality : High
Add ID3 tag : No
Command line compressor : C:\Program Files (x86)\Exact Audio Copy\Flac\flac.exe
Additional command line options : -6 -V -T "ARTIST=%artist%" -T "TITLE=%title%" -T "ALBUM=%albumtitle%" -T "DATE=%year%" -T "TRACKNUMBER=%tracknr%" -T "GENRE=%genre%" -T "COMMENT=%comment%" -T "BAND=%albuminterpret%" -T "COMPOSER=%composer%" %haslyrics%–tag-from-file=LYRICS="%lyricsfile%"%haslyrics% -T "DISCNUMBER=%cdnumber%" -T "TOTALDISCS=%totalcds%" -T "TOTALTRACKS=%numtracks%" %hascover%–picture="%coverfile%"%hascover% %source% -o %dest%


TOC of the extracted CD

Track | Start | Length | Start sector | End sector
––––––––––––––––––––––––––––-
1 | 0:00.00 | 4:25.45 | 0 | 19919
2 | 4:25.45 | 5:08.37 | 19920 | 43056
3 | 9:34.07 | 4:26.43 | 43057 | 63049
4 | 14:00.50 | 5:23.60 | 63050 | 87334
5 | 19:24.35 | 5:30.12 | 87335 | 112096
6 | 24:54.47 | 5:13.25 | 112097 | 135596
7 | 30:07.72 | 4:08.10 | 135597 | 154206
8 | 34:16.07 | 6:22.68 | 154207 | 182924
9 | 40:39.00 | 5:10.27 | 182925 | 206201
10 | 45:49.27 | 5:18.60 | 206202 | 230111
11 | 51:08.12 | 3:34.45 | 230112 | 246206
12 | 54:42.57 | 5:56.58 | 246207 | 272964


Range status and errors

Selected range

Filename C:\mm\Aerosmith\2007 - The Best Of {20th Century Masters. The Millennium Collection} [B0001101-02]\Aerosmith - The Millennium Collection. The Best Of.wav

Peak level 98.8 %
Extraction speed 9.8 X
Range quality 100.0 %
Test CRC C9851C55
Copy CRC C9851C55
Copy OK

No errors occurred


AccurateRip summary

Track 1 accurately ripped (confidence 35) [8A77A1C9] (AR v2)
Track 2 accurately ripped (confidence 35) [2F5D2D4D] (AR v2)
Track 3 accurately ripped (confidence 35) [796B647D] (AR v2)
Track 4 accurately ripped (confidence 35) [D2F504AA] (AR v2)
Track 5 accurately ripped (confidence 34) [D925FE56] (AR v2)
Track 6 accurately ripped (confidence 35) [7672FF4A] (AR v2)
Track 7 accurately ripped (confidence 35) [DECFBC3E] (AR v2)
Track 8 accurately ripped (confidence 35) [0666EFA8] (AR v2)
Track 9 accurately ripped (confidence 34) [9F5F6FAA] (AR v2)
Track 10 accurately ripped (confidence 34) [70D9A823] (AR v2)
Track 11 accurately ripped (confidence 35) [36F0669F] (AR v2)
Track 12 accurately ripped (confidence 34) [B30521D5] (AR v2)

All tracks accurately ripped

End of status report

[CUETools log; Date: 20.08.2016 16:32:12; Version: 2.1.5]
[CTDB TOCID: O_qXYQfisKPtZjLmfK8XI6G4a6U-] found.
Track | CTDB Status
1 | (52/52) Accurately ripped
2 | (52/52) Accurately ripped
3 | (52/52) Accurately ripped
4 | (52/52) Accurately ripped
5 | (52/52) Accurately ripped
6 | (51/52) Accurately ripped
7 | (52/52) Accurately ripped
8 | (52/52) Accurately ripped
9 | (51/52) Accurately ripped
10 | (49/52) Accurately ripped
11 | (51/52) Accurately ripped
12 | (49/52) Accurately ripped
[AccurateRip ID: 001ac24a-00fb18e6-a90e370c] found.
Track [ CRC | V2 ] Status
01 [99f90df9|8a77a1c9] (15+40/55) Accurately ripped
02 [0c6da333|2f5d2d4d] (15+40/55) Accurately ripped
03 [c1f348cc|796b647d] (14+40/54) Accurately ripped
04 [331e6c93|d2f504aa] (14+40/54) Accurately ripped
05 [e2cd5de3|d925fe56] (14+38/52) Accurately ripped
06 [33ede0f4|7672ff4a] (14+40/54) Accurately ripped
07 [fd502e1c|decfbc3e] (14+40/54) Accurately ripped
08 [5968f60b|0666efa8] (13+40/53) Accurately ripped
09 [8f20b122|9f5f6faa] (14+39/53) Accurately ripped
10 [8487ad94|70d9a823] (14+39/53) Accurately ripped
11 [312cb7ad|36f0669f] (15+40/55) Accurately ripped
12 [7867c979|b30521d5] (14+40/54) Accurately ripped

Track Peak [ CRC32 ] [W/O NULL] [ LOG ]
– 98,8 [C9851C55] [210A6F6E] CRC32
01 98,8 [A352FAF9] [6B9B14E4]
02 98,8 [484F658B] [8D4E6A58]
03 98,8 [6492E6E1] [D5FE95DF]
04 98,8 [F667948C] [37AE890E]
05 98,8 [EFEE9956] [C1FD4687]
06 98,8 [0F036317] [DB8891FD]
07 98,8 [C5429F80] [B36CF5DB]
08 98,8 [ED4B142E] [C4E0D873]
09 98,8 [3B1B5AB5] [2D057466]
10 98,8 [4E4EF1F7] [82CE5A3F]
11 97,9 [8320A2DA] [10E9C948]
12 98,8 [F2EE9E15] [2B5CFE4D]

Aerosmith - 20th Century Masters: The Millennium Collection - The Best Of Aerosmith (2007)


All thanks go to sergych

>>> Aerosmith in my Blog <<<

DOWNLOAD: