Tags
Language
Tags
February 2024
Su Mo Tu We Th Fr Sa
28 29 30 31 1 2 3
4 5 6 7 8 9 10
11 12 13 14 15 16 17
18 19 20 21 22 23 24
25 26 27 28 29 1 2
Attention❗ To save your time, in order to download anything on this site, you must be registered 👉 HERE. If you do not have a registration yet, it is better to do it right away. ✌

( • )( • ) ( ͡⚆ ͜ʖ ͡⚆ ) (‿ˠ‿)
SpicyMags.xyz

Ahmad Jamal - Tranquility (1968) & Outertimeinnerspace (1972) [Reissue 2015]

Posted By: gribovar
Ahmad Jamal - Tranquility (1968) & Outertimeinnerspace (1972) [Reissue 2015]

Ahmad Jamal - Tranquility (1968) & Outertimeinnerspace (1972) [Reissue 2015]
EAC Rip | FLAC (tracks+.cue+log) - 437 MB | Covers - 12 MB
Genre: Jazz, Post-Bop, Piano Jazz | RAR 3% Rec. | Label: Universal/Verve (06007 5363968)

Tranquility (1968). This hard-to-find recording is of value if only to hear Jamal's interpretation of two Burt Bacharach-Hal David gems from the '60s, "I Say a Little Prayer" and "The Look of Love." Since the early '50s, Jamal has managed to generate commercial appeal within the piano trio format by crafting memorable arrangements without resorting to clichés. (Jamal's trio concept paved the way for the success of Ramsey Lewis, the Three Sounds, and others.) He treats the entire trio - not just the piano - as his instrument and has mastered the use of space and dynamic variation in shaping his distinctive group sound. Jamal has a keen sense of formal structure; his concise renderings of standards and pop tunes always offer a fresh take on the familiar by deconstructing and reconstructing melodic, harmonic, and rhythmic themes. This collection is no exception. Check out the bass ostinato which frames Mercer & Mandel's "Emily," or the superimposed rhythms of "Nothing Ever Changes My Love for You." Jamal, himself a major innovator in modern jazz (his significant influence on Miles Davis has been widely noted) is able to continually find inspiration in the developments of other jazz artists. Listen to the modal vamps on his original compositions "Manhattan Reflections" and "Tranquility," inspired by McCoy Tyner's work. Or the reference to Herbie Hancock's Maiden Voyage in "When I Look in Your Eyes." Though he remains open to new trends in jazz, Jamal's music always retains its essential uniqueness. While not to be ranked amongst his greatest works, Tranquility is a very fine recording and any opportunity to hear this master should not be missed. Along with bassist Jamil Nasser and drummer Frank Gant, Ahmad Jamal makes beautiful and accessible trio music conceived with great depth and clarity.

Outertimeinnerspace (1972). Ahmad Jamal's final Impulse! date documents his appearance at the 1971 Montreux Jazz Festival. Comprising two epic improvisations, each occupying an entire side of the LP, Outertimeinnerspace is a challenging but deeply rewarding effort that captures the pianist at his most profoundly spiritual, exploring otherworldly dimensions of space and sound. Jamal, bassist Jamil Nasser, and drummer Frank Gant all deliver performances of uncommon intensity, channeling the energy of the audience into music that pulses with life and crackles with inspiration. Both "Bogota" and "Extensions" demand listeners' full immersion, and reward their efforts with music of uncommon daring.
Tracklist:

Tranquility (1968):
01. I Say A Little Prayer
02. The Look Of Love
03. When I Look In Your Eyes
04. Illusions Opticas
05. Nothing Ever Changes My Love For You
06. Emily
07. Tranquility
08. Free Again
09. Manhattan Reflections

Outertimeinnerspace (1972):
10. Spoken Introduction
11. Bogota
12. Extensions

Total time: 01:15:21

Exact Audio Copy V1.3 from 2. September 2016

EAC extraction logfile from 14. March 2021, 17:31

Ahmad Jamal / Tranquility & Outertimeinnerspace

Used drive : TSSTcorpCDDVDW SH-224FB Adapter: 1 ID: 0

Read mode : Secure
Utilize accurate stream : Yes
Defeat audio cache : Yes
Make use of C2 pointers : No

Read offset correction : 6
Overread into Lead-In and Lead-Out : No
Fill up missing offset samples with silence : Yes
Delete leading and trailing silent blocks : No
Null samples used in CRC calculations : Yes
Used interface : Native Win32 interface for Win NT & 2000
Gap handling : Appended to previous track

Used output format : User Defined Encoder
Selected bitrate : 128 kBit/s
Quality : High
Add ID3 tag : No
Command line compressor : C:\Program Files (x86)\Exact Audio Copy\Flac\flac.exe
Additional command line options : -V -8 -T "Genre=%genre%" -T "Artist=%artist%" -T "Title=%title%" -T "Album=%albumtitle%" -T "Date=%year%" -T "Tracknumber=%tracknr%" -T "Comment=%comment%" %source%


TOC of the extracted CD

Track | Start | Length | Start sector | End sector
––––––––––––––––––––––––––––-
1 | 0:00.00 | 2:28.03 | 0 | 11102
2 | 2:28.03 | 2:49.58 | 11103 | 23835
3 | 5:17.61 | 4:19.47 | 23836 | 43307
4 | 9:37.33 | 2:30.54 | 43308 | 54611
5 | 12:08.12 | 2:43.74 | 54612 | 66910
6 | 14:52.11 | 3:45.41 | 66911 | 83826
7 | 18:37.52 | 8:53.17 | 83827 | 123818
8 | 27:30.69 | 4:46.08 | 123819 | 145276
9 | 32:17.02 | 6:20.60 | 145277 | 173836
10 | 38:37.62 | 1:08.74 | 173837 | 179010
11 | 39:46.61 | 15:54.52 | 179011 | 250612
12 | 55:41.38 | 19:39.38 | 250613 | 339075


Track 1

Filename C:\ssagwebster\Ahmad Jamal - Tranquility & Outertimeinnerspace (2015)\01. I Say A Little Prayer.wav

Pre-gap length 0:00:02.00

Peak level 99.1 %
Extraction speed 1.4 X
Track quality 99.9 %
Test CRC 72B83019
Copy CRC 72B83019
Accurately ripped (confidence 13) [609CAD38] (AR v2)
Copy OK

Track 2

Filename C:\ssagwebster\Ahmad Jamal - Tranquility & Outertimeinnerspace (2015)\02. The Look Of Love.wav

Pre-gap length 0:00:01.20

Peak level 99.0 %
Extraction speed 1.8 X
Track quality 100.0 %
Test CRC 0DCA4C6F
Copy CRC 0DCA4C6F
Accurately ripped (confidence 13) [8215A085] (AR v2)
Copy OK

Track 3

Filename C:\ssagwebster\Ahmad Jamal - Tranquility & Outertimeinnerspace (2015)\03. When I Look In Your Eyes.wav

Pre-gap length 0:00:00.38

Peak level 98.9 %
Extraction speed 1.8 X
Track quality 99.9 %
Test CRC 25130EED
Copy CRC 25130EED
Accurately ripped (confidence 14) [CCEC4ECD] (AR v2)
Copy OK

Track 4

Filename C:\ssagwebster\Ahmad Jamal - Tranquility & Outertimeinnerspace (2015)\04. Illusions Opticas.wav

Pre-gap length 0:00:00.65

Peak level 98.9 %
Extraction speed 1.6 X
Track quality 99.9 %
Test CRC CE9792C6
Copy CRC CE9792C6
Accurately ripped (confidence 13) [06E488E8] (AR v2)
Copy OK

Track 5

Filename C:\ssagwebster\Ahmad Jamal - Tranquility & Outertimeinnerspace (2015)\05. Nothing Ever Changes My Love For You.wav

Pre-gap length 0:00:01.29

Peak level 98.9 %
Extraction speed 1.7 X
Track quality 99.9 %
Test CRC 0E49DD17
Copy CRC 0E49DD17
Accurately ripped (confidence 13) [C1FE042C] (AR v2)
Copy OK

Track 6

Filename C:\ssagwebster\Ahmad Jamal - Tranquility & Outertimeinnerspace (2015)\06. Emily.wav

Pre-gap length 0:00:01.19

Peak level 98.8 %
Extraction speed 2.4 X
Track quality 100.0 %
Test CRC AAC7583C
Copy CRC AAC7583C
Accurately ripped (confidence 13) [3F04801D] (AR v2)
Copy OK

Track 7

Filename C:\ssagwebster\Ahmad Jamal - Tranquility & Outertimeinnerspace (2015)\07. Tranquility.wav

Pre-gap length 0:00:01.01

Peak level 98.9 %
Extraction speed 2.9 X
Track quality 100.0 %
Test CRC D19D274D
Copy CRC D19D274D
Accurately ripped (confidence 13) [8B6DC514] (AR v2)
Copy OK

Track 8

Filename C:\ssagwebster\Ahmad Jamal - Tranquility & Outertimeinnerspace (2015)\08. Free Again.wav

Pre-gap length 0:00:01.28

Peak level 98.9 %
Extraction speed 2.9 X
Track quality 100.0 %
Test CRC A4E02D0B
Copy CRC A4E02D0B
Accurately ripped (confidence 13) [17BA7A50] (AR v2)
Copy OK

Track 9

Filename C:\ssagwebster\Ahmad Jamal - Tranquility & Outertimeinnerspace (2015)\09. Manhattan Reflections.wav

Pre-gap length 0:00:00.60

Peak level 99.0 %
Extraction speed 2.7 X
Track quality 99.9 %
Test CRC 5993174D
Copy CRC 5993174D
Accurately ripped (confidence 13) [121ECE1D] (AR v2)
Copy OK

Track 10

Filename C:\ssagwebster\Ahmad Jamal - Tranquility & Outertimeinnerspace (2015)\10. Spoken Introduction.wav

Pre-gap length 0:00:01.31

Peak level 97.5 %
Extraction speed 2.3 X
Track quality 100.0 %
Test CRC C78EA4D6
Copy CRC C78EA4D6
Accurately ripped (confidence 14) [53628771] (AR v2)
Copy OK

Track 11

Filename C:\ssagwebster\Ahmad Jamal - Tranquility & Outertimeinnerspace (2015)\11. Bogota.wav

Peak level 97.9 %
Extraction speed 3.7 X
Track quality 100.0 %
Test CRC 1949A139
Copy CRC 1949A139
Accurately ripped (confidence 14) [931D32CC] (AR v2)
Copy OK

Track 12

Filename C:\ssagwebster\Ahmad Jamal - Tranquility & Outertimeinnerspace (2015)\12. Extensions.wav

Pre-gap length 0:00:00.45

Peak level 97.9 %
Extraction speed 4.2 X
Track quality 100.0 %
Test CRC 90469DAF
Copy CRC 90469DAF
Accurately ripped (confidence 14) [76DFFEF2] (AR v2)
Copy OK


All tracks accurately ripped

No errors occurred

End of status report

–– CUETools DB Plugin V2.1.6

[CTDB TOCID: m4qLPdlIIdpUmjfOAArg4uFMWr4-] found
Submit result: m4qLPdlIIdpUmjfOAArg4uFMWr4- has been confirmed
Track | CTDB Status
1 | (23/23) Accurately ripped
2 | (23/23) Accurately ripped
3 | (23/23) Accurately ripped
4 | (23/23) Accurately ripped
5 | (23/23) Accurately ripped
6 | (23/23) Accurately ripped
7 | (23/23) Accurately ripped
8 | (23/23) Accurately ripped
9 | (23/23) Accurately ripped
10 | (23/23) Accurately ripped
11 | (23/23) Accurately ripped
12 | (23/23) Accurately ripped


==== Log checksum B5AD4ACE670837CBA35ACB28B34EE4F0EF6F6BBDD24930A8979A463E7FBCDDB7 ====

[CUETools log; Date: 15.03.2021 14:47:09; Version: 2.1.4]
[CTDB TOCID: m4qLPdlIIdpUmjfOAArg4uFMWr4-] found.
Track | CTDB Status
1 | (24/24) Accurately ripped
2 | (24/24) Accurately ripped
3 | (24/24) Accurately ripped
4 | (24/24) Accurately ripped
5 | (24/24) Accurately ripped
6 | (24/24) Accurately ripped
7 | (24/24) Accurately ripped
8 | (24/24) Accurately ripped
9 | (24/24) Accurately ripped
10 | (24/24) Accurately ripped
11 | (24/24) Accurately ripped
12 | (24/24) Accurately ripped
[AccurateRip ID: 0016d0be-00e41b16-aa11a90c] found.
Track [ CRC | V2 ] Status
01 [f5099bfc|609cad38] (00+13/13) Accurately ripped
02 [91f4cf84|8215a085] (00+13/13) Accurately ripped
03 [54201a72|ccec4ecd] (00+14/14) Accurately ripped
04 [c72a5f1e|06e488e8] (00+13/13) Accurately ripped
05 [3632dd8e|c1fe042c] (00+13/13) Accurately ripped
06 [5eda6373|3f04801d] (00+13/13) Accurately ripped
07 [3377f151|8b6dc514] (00+13/13) Accurately ripped
08 [dfc71ffc|17ba7a50] (00+13/13) Accurately ripped
09 [9946e5b7|121ece1d] (00+13/13) Accurately ripped
10 [03e107d1|53628771] (00+14/14) Accurately ripped
11 [e9e773e2|931d32cc] (00+14/14) Accurately ripped
12 [f0c8ce45|76dffef2] (00+14/14) Accurately ripped

Track Peak [ CRC32 ] [W/O NULL] [ LOG ]
– 99,1 [2D4E5076] [8903F320]
01 99,1 [72B83019] [ACBA4042] CRC32
02 99,0 [0DCA4C6F] [DA2E2E24] CRC32
03 98,9 [25130EED] [15B7A10E] CRC32
04 98,9 [CE9792C6] [3B073957] CRC32
05 98,9 [0E49DD17] [5AE48C13] CRC32
06 98,8 [AAC7583C] [C57CB21D] CRC32
07 98,9 [D19D274D] [391AD28A] CRC32
08 98,9 [A4E02D0B] [B1A16861] CRC32
09 99,0 [5993174D] [FD2A369C] CRC32
10 97,5 [C78EA4D6] [7095A266] CRC32
11 97,9 [1949A139] [106659F5] CRC32
12 97,9 [90469DAF] [CE6A3C9A] CRC32

Thanks to ssagwebster