Subcategories

Aisles - Hawaii (2016)

Posted By: gribovar
Aisles - Hawaii (2016)

Aisles - Hawaii (2016)
EAC Rip | FLAC (image+.cue+log) - 496 MB | MP3 CBR 320 kbps (LAME 3.93) - 193 MB | Covers - 109 MB
Genre: Neo-Progressive Rock | RAR 3% Rec. | Label: Presagio Records (PRCD1104)

With three studio albums and a career spanning eleven years, Aisles have become one of South America’s most acclaimed prog acts of the last decade. Their fourth album, ‘Hawaii’ was released on July 29th, 2016 through Presagio Records. In November 2015 they went to a local beach house, spent a week together, writing music the whole time. It must have been an amazing experience for them, with the final result of this successful double CD. Obviously designed as a concept album "all the music was written with our hearts and minds, set on the idea of these human colonies - a small group of people who are able to preserve some of the heritage of mankind after earth is destroyed".

CD 1 Tracklist:
01. The Poet Part I - Dusk
02. The Poet Part II - New World
03. Year Zero
04. Upside Down
05. CH-7

Total time: 38:12

CD 2 Tracklist:
01. Terra
02. Pale Blue Dot
03. Still Alive
04. Nostalgia
05. Club Hawaii
06. Falling
07. In The Probe

Total time: 43:39

Exact Audio Copy V1.2 from 12. August 2016

EAC extraction logfile from 27. August 2016, 10:11

Aisles / Hawaii (Disc 1)

Used drive : Optiarc DVD RW AD-7203S Adapter: 1 ID: 0

Read mode : Secure
Utilize accurate stream : Yes
Defeat audio cache : Yes
Make use of C2 pointers : No

Read offset correction : 48
Overread into Lead-In and Lead-Out : No
Fill up missing offset samples with silence : Yes
Delete leading and trailing silent blocks : No
Null samples used in CRC calculations : Yes
Used interface : Native Win32 interface for Win NT & 2000

Used output format : User Defined Encoder
Selected bitrate : 1024 kBit/s
Quality : High
Add ID3 tag : No
Command line compressor : C:\Program Files (x86)\FLAC\FLAC frontend.exe
Additional command line options : -V -8 -T "Date=%year%" -T "Genre=%genre%" %source%


TOC of the extracted CD

Track | Start | Length | Start sector | End sector
––––––––––––––––––––––––––––-
1 | 0:00.00 | 10:10.59 | 0 | 45808
2 | 10:10.59 | 4:18.38 | 45809 | 65196
3 | 14:29.22 | 4:36.23 | 65197 | 85919
4 | 19:05.45 | 6:27.22 | 85920 | 114966
5 | 25:32.67 | 12:38.61 | 114967 | 171877


Range status and errors

Selected range

Filename C:\Users\юрий\Desktop\Aisles - Hawaii (Disc 1).wav

Peak level 100.0 %
Extraction speed 3.6 X
Range quality 100.0 %
Test CRC 45906FF5
Copy CRC 45906FF5
Copy OK

No errors occurred


AccurateRip summary

Track 1 not present in database
Track 2 not present in database
Track 3 not present in database
Track 4 not present in database
Track 5 not present in database

None of the tracks are present in the AccurateRip database

End of status report

–– CUETools DB Plugin V2.1.6

[CTDB TOCID: 8CBe3OiK_1D4g296kx.kdtr7cdw-] found
Submit result: already submitted
Track | CTDB Status
1 | (1/1) Accurately ripped
2 | (1/1) Accurately ripped
3 | (1/1) Accurately ripped
4 | (1/1) Accurately ripped
5 | (1/1) Accurately ripped


==== Log checksum C7E771916984AEE71FEB7DEB8ED47CE24E0B7F387502046B0213343998ADF4CE ====

[CUETools log; Date: 30.06.2020 14:04:56; Version: 2.1.4]
[CTDB TOCID: 8CBe3OiK_1D4g296kx.kdtr7cdw-] found.
Track | CTDB Status
1 | (12/12) Accurately ripped
2 | (12/12) Accurately ripped
3 | (12/12) Accurately ripped
4 | (12/12) Accurately ripped
5 | (12/12) Accurately ripped
[AccurateRip ID: 000761bb-00222241-3508f305] found.
Track [ CRC | V2 ] Status
01 [25a1cf87|f95833f6] (0+8/8) Accurately ripped
02 [b2cc1b8b|1368ae08] (0+8/8) Accurately ripped
03 [e95ac3df|781944f1] (0+8/8) Accurately ripped
04 [26e38fa6|56ee6548] (0+8/8) Accurately ripped
05 [29ab44dd|f6efac89] (0+8/8) Accurately ripped

Track Peak [ CRC32 ] [W/O NULL] [ LOG ]
– 100,0 [45906FF5] [DD0C093C] CRC32
01 100,0 [9909689F] [73ED3A00]
02 100,0 [1FCA4B16] [DF3CC337]
03 100,0 [A5ED86E4] [E0DDC471]
04 100,0 [9236D582] [C4FB48DD]
05 100,0 [B55F7C65] [6545BA9F]

Exact Audio Copy V1.2 from 12. August 2016

EAC extraction logfile from 27. August 2016, 11:33

Aisles / Hawaii (Disc 2)

Used drive : Optiarc DVD RW AD-7203S Adapter: 1 ID: 0

Read mode : Secure
Utilize accurate stream : Yes
Defeat audio cache : Yes
Make use of C2 pointers : No

Read offset correction : 48
Overread into Lead-In and Lead-Out : No
Fill up missing offset samples with silence : Yes
Delete leading and trailing silent blocks : No
Null samples used in CRC calculations : Yes
Used interface : Native Win32 interface for Win NT & 2000

Used output format : User Defined Encoder
Selected bitrate : 1024 kBit/s
Quality : High
Add ID3 tag : No
Command line compressor : C:\Program Files (x86)\FLAC\FLAC frontend.exe
Additional command line options : -V -8 -T "Date=%year%" -T "Genre=%genre%" %source%


TOC of the extracted CD

Track | Start | Length | Start sector | End sector
––––––––––––––––––––––––––––-
1 | 0:00.00 | 8:06.33 | 0 | 36482
2 | 8:06.33 | 9:55.28 | 36483 | 81135
3 | 18:01.61 | 4:48.18 | 81136 | 102753
4 | 22:50.04 | 2:14.25 | 102754 | 112828
5 | 25:04.29 | 9:22.26 | 112829 | 155004
6 | 34:26.55 | 2:14.70 | 155005 | 165124
7 | 36:41.50 | 6:57.44 | 165125 | 196443


Range status and errors

Selected range

Filename C:\Users\юрий\Desktop\Aisles - Hawaii (Disc 2).wav

Peak level 100.0 %
Extraction speed 3.3 X
Range quality 99.9 %
Test CRC DEF24C2F
Copy CRC DEF24C2F
Copy OK

No errors occurred


AccurateRip summary

Track 1 not present in database
Track 2 not present in database
Track 3 not present in database
Track 4 not present in database
Track 5 not present in database
Track 6 not present in database
Track 7 not present in database

None of the tracks are present in the AccurateRip database

End of status report

–– CUETools DB Plugin V2.1.6

[CTDB TOCID: ylfItIv4DDGHA8xs7X3sKj8rhc8-] found
Submit result: already submitted
Track | CTDB Status
1 | (1/1) Accurately ripped
2 | (1/1) Accurately ripped
3 | (1/1) Accurately ripped
4 | (1/1) Accurately ripped
5 | (1/1) Accurately ripped
6 | (1/1) Accurately ripped
7 | (1/1) Accurately ripped


==== Log checksum 4B2C4D140113D78DA7FC304AE1AC36C8F61C6811606ABB58420DDAF28E3B0BA3 ====

[CUETools log; Date: 30.06.2020 14:06:14; Version: 2.1.4]
[CTDB TOCID: ylfItIv4DDGHA8xs7X3sKj8rhc8-] found.
Track | CTDB Status
1 | (12/12) Accurately ripped
2 | (12/12) Accurately ripped
3 | (12/12) Accurately ripped
4 | (12/12) Accurately ripped
5 | (12/12) Accurately ripped
6 | (12/12) Accurately ripped
7 | (12/12) Accurately ripped
[AccurateRip ID: 000cf770-004b8401-520a3b07] found.
Track [ CRC | V2 ] Status
01 [9e5f4b5b|28333e83] (0+7/7) Accurately ripped
02 [f089f942|2fa6e483] (0+7/7) Accurately ripped
03 [19ba7fe5|d50e008a] (0+7/7) Accurately ripped
04 [c1116161|764801df] (0+7/7) Accurately ripped
05 [cc588649|1b9cf6d8] (0+7/7) Accurately ripped
06 [fbfc19a4|6f260625] (0+7/7) Accurately ripped
07 [4aa8c5a5|bec07eef] (0+7/7) Accurately ripped

Track Peak [ CRC32 ] [W/O NULL] [ LOG ]
– 100,0 [DEF24C2F] [B30B2301] CRC32
01 99,3 [9A51B389] [9B0F8D8A]
02 100,0 [B4273907] [432727C1]
03 100,0 [EDA8A6B6] [B8DFE0ED]
04 100,0 [E00A6364] [CCFD6833]
05 100,0 [212EC6F5] [3E34850F]
06 99,0 [AEC3A165] [0897B69D]
07 98,9 [3152DD61] [FD8450A2]

Thanks to dimychsh