Subcategories

VA - Akella Presents Vol. 6: Rock'n'Roll (2013)

Posted By: v3122
VA - Akella Presents Vol. 6: Rock'n'Roll (2013)

VA - Akella Presents Vol. 6: Rock'n'Roll (2013)
EAC | Flac(Image) + Cue + Log & MP3 CBR 320Kbps
2CD | Akella Blues | ~ 1082 or 384 Mb | Scans Included
Rock'n'Roll

~ Willie and the Poor Boys, Ray Charles, Jan Gillan, The Firebirds, Robert Plant, Chuck Berry and many more ~

VA - Akella Presents Vol. 6: Rock'n'Roll (2013):

VA - Akella Presents Vol. 6: Rock'n'Roll (2013)

Tracklist CD1:

01. WILLIE and the POOR BOYS / You Never Can Tell [0:03:55.23]
02. ES FEIV / Brand New Cadillac [0:02:06.34]
03. WILLIE and the POOR BOYS / Let's Talk It Over [0:02:58.42]
04. EL RIO TRIO / I'm Burning [0:02:54.42]
05. JOHNNY POWER / You Win Again [0:04:09.08]
06. TUPELO HIGHSHOTS / Maybe Little Baby [0:02:27.19]
07. VINCE RAY / Looking For Johnny [0:02:32.59]
08. RAY CHARLES & STRAY CATS / Hit the Road Jack [0:01:53.43]
09. The RUNNAWAY BOYS / Rock Around with Ollie Vee [0:02:17.66]
10. ROCKIN' LOUIE / Troubles Troubles [0:02:28.73]
11. MUNGO JERRY / In the Summertime [0:03:33.02]
12. JAN GILLAN & The JAVELINS / Too Much Monkey Business [0:03:00.05]
13. SHAKIN' STEVENS / This Ole House [0:03:05.45]
14. WILD WILLIE & BIG DEAL / Don‘t Rock Me [0:02:57.07]
15. RALPH REBEL / Rockabilly Vampire [0:02:30.28]
16. The FIREBIRDS / Comin' On Strong [0:02:34.35]
17. JOHNNY HALLYDAY / Blue Suede Shoes [0:02:10.45]
18. SHAKIN' STEVENS / A Rockin' Good Way [0:02:53.25]
19. LEE ROCKER / Rumblin' Bass [0:03:48.21]
20. HELLBILLY BOYS / Honky Tonk Train [0:03:03.29]
21. MICKE MUSTER / Rockin' Piano Man [0:02:22.40]
22. SLEEPY LaBEEF / Bottle Up and Go [0:02:33.33]
23. CRAZY CAVAN & RHYTHM ROCKERS / Teddy Boy Rock'n'Roll [0:01:33.02]
24. DANNY GATTON / Sun Medley [0:05:06.05]
25. ROBERT PLANT / My Bucket's Got a Hole In It [0:02:12.53]
26. CHUCK BERRY / Let it Rock [0:01:45.08]
27. TUPELO HIGHSHOTS / Cry [0:03:33.21]
28. ARSEN ROULETTE / I Do For You [0:03:07.48]

Exact Audio Copy V1.0 beta 3 from 29. August 2011

Отчёт EAC об извлечении, выполненном 9. июня 2013, 23:39

Various Artists / Akella Presents - Rock'n'Roll - vol.6 CD1 New!

Дисковод: PLEXTOR DVDR PX-891SA Adapter: 1 ID: 0

Режим чтения : Достоверность
Использование точного потока : Да
Отключение кэша аудио : Да
Использование указателей C2 : Нет

Коррекция смещения при чтении : 6
Способность читать области Lead-in и Lead-out : Нет
Заполнение пропущенных сэмплов тишиной : Да
Удаление блоков с тишиной в начале и конце : Нет
При вычислениях CRC использовались нулевые сэмплы : Да
Интерфейс : Встроенный Win32-интерфейс для Win NT/2000

Выходной формат : Пользовательский кодировщик
Выбранный битрейт : 768 kBit/s
Качество : Высокий
Добавление ID3-тега : Нет
Утилита сжатия : C:\Program Files\Exact Audio Copy\FLAC\FLAC.EXE
Дополнительные параметры : -6 -V -T "ARTIST=%artist%" -T "TITLE=%title%" -T "ALBUM=%albumtitle%" -T "DATE=%year%" -T "TRACKNUMBER=%tracknr%" -T "GENRE=%genre%" -T "COMMENT=%comment%" -T "BAND=%albuminterpret%" -T "ALBUMARTIST=%albuminterpret%" -T "COMPOSER=%composer%" %haslyrics%–tag-from-file=LYRICS="%lyricsfile%"%haslyrics% -T "DISCNUMBER=%cdnumber%" -T "TOTALDISCS=%totalcds%" -T "TOTALTRACKS=%numtracks%" %hascover%–picture="%coverfile%"%hascover% %source% -o %dest%


TOC извлечённого CD

Трек | Старт | Длительность | Начальный сектор | Конечный сектор
––––––––––––––––––––––––––––––––––-
1 | 0:00.00 | 3:55.23 | 0 | 17647
2 | 3:55.23 | 2:06.34 | 17648 | 27131
3 | 6:01.57 | 2:58.42 | 27132 | 40523
4 | 9:00.24 | 2:54.42 | 40524 | 53615
5 | 11:54.66 | 4:09.08 | 53616 | 72298
6 | 16:03.74 | 2:27.19 | 72299 | 83342
7 | 18:31.18 | 2:32.59 | 83343 | 94801
8 | 21:04.02 | 1:53.43 | 94802 | 103319
9 | 22:57.45 | 2:17.66 | 103320 | 113660
10 | 25:15.36 | 2:28.73 | 113661 | 124833
11 | 27:44.34 | 3:33.02 | 124834 | 140810
12 | 31:17.36 | 3:00.05 | 140811 | 154315
13 | 34:17.41 | 3:05.45 | 154316 | 168235
14 | 37:23.11 | 2:57.07 | 168236 | 181517
15 | 40:20.18 | 2:30.28 | 181518 | 192795
16 | 42:50.46 | 2:34.35 | 192796 | 204380
17 | 45:25.06 | 2:10.45 | 204381 | 214175
18 | 47:35.51 | 2:53.25 | 214176 | 227175
19 | 50:29.01 | 3:48.21 | 227176 | 244296
20 | 54:17.22 | 3:03.29 | 244297 | 258050
21 | 57:20.51 | 2:22.40 | 258051 | 268740
22 | 59:43.16 | 2:33.33 | 268741 | 280248
23 | 62:16.49 | 1:33.02 | 280249 | 287225
24 | 63:49.51 | 5:06.05 | 287226 | 310180
25 | 68:55.56 | 2:12.53 | 310181 | 320133
26 | 71:08.34 | 1:45.08 | 320134 | 328016
27 | 72:53.42 | 3:33.21 | 328017 | 344012
28 | 76:26.63 | 3:07.48 | 344013 | 358085


Характеристики диапазона извлечения и сообщения об ошибках

Выбранный диапазон

Имя файла K:\My Uploads-4\Akella Presents - vol.6 2CD\CD1 79'36''\Various Artists - Akella Presents - Rock'n'Roll - vol.6 CD1 New!.wav

Пиковый уровень 100.0 %
Скорость извлечения 9.8 X
Качество диапазона 99.9 %
CRC теста BB8E3D0A
CRC копии BB8E3D0A
Копирование… OK

Ошибок не произошло

Конец отчёта

–– CUETools DB Plugin V2.1.3

[CTDB TOCID: 1AT_QFy79wkrNn2ZOrLS2ztlArA-] found, Submit result: 1AT_QFy79wkrNn2ZOrLS2ztlArA- has been uploaded
[f315a1d5] (1/1) No match


==== Контрольная сумма отчёта E948900D1EA46709540C42D55DB8D74204D7980448079EF26A3A47B11D3EE8B5 ====

VA - Akella Presents Vol. 6: Rock'n'Roll (2013)

Tracklist CD2:

01. SLEEPY LaBEEF / Rip it Up [0:03:42.47]
02. BELUSHI & AYKROYD / Cadillac Man [0:02:26.25]
03. SPRINGLERS / Too Much Wine [0:01:51.21]
04. ROCKIN' LOUIE / Boogie Woogie Country Girl [0:02:57.55]
05. BILLY LEE RILEY / Lost My Only Love [0:04:21.17]
06. BILL HALEY / Rock Around the Clock [0:02:09.37]
07. THE BOPTAILS / Comin' Home [0:02:26.11]
08. JOHNNY POWERS / Something About You [0:02:43.30]
09. CHUCK BERRY / My Mustang Ford [0:02:20.72]
10. EL RIO TRIO / Love Charm [0:02:34.57]
11. HELLBILLY BOYS / Crazy Groove [0:02:50.33]
12. JAN GILLAN & The JAVELINS / Roll Over Beethoven [0:02:45.13]
13. TUPELO HIGHSHOTS / Tupelo [0:02:19.55]
14. BRUCE WILLIS / Turn It Up (a Little Louder) [0:04:10.00]
15. BILLY LEE RILEY / Goin' Jukin' [0:02:10.25]
16. WILLIE and the POOR BOYS / Revenue Man [0:02:36.06]
17. WILD WIND / Maggie Did It [0:03:03.04]
18. JIM BELUSHI&The SACRED HEARTS / If the House Is Rockin' [0:03:27.52]
19. ROCKIN' LOUIE / Rock and Roll Man [0:02:04.52]
20. WILD WILLIE & BIG DEAL / Thirty Days [0:02:07.73]
21. SHAKIN' STEVENS / Because I Love You [0:03:11.21]
22. STRAY CATS / Wasn't That Good [0:02:43.52]
23. ARSEN ROULETTE / Messed Up [0:02:28.58]
24. EL RIO TRIO / Bop Pretty Baby [0:02:28.70]
25. MICKE MUSTER / Hotel Waitress [0:02:52.04]
26. JIVE BUNNY / Jive Bunny Medley [0:06:06.27]
27. VINCE RAY / Hey Bartender [0:02:09.51]
28. CHUCK BERRY / You Never Can Tell - CHUCK BERRY [0:02:41.25]

Exact Audio Copy V1.0 beta 3 from 29. August 2011

Отчёт EAC об извлечении, выполненном 9. июня 2013, 23:40

Various Artists / Akella Presents - Rock'n'Roll vol.6 CD2 New!

Дисковод: PLEXTOR DVDR PX-750A Adapter: 1 ID: 1

Режим чтения : Достоверность
Использование точного потока : Да
Отключение кэша аудио : Да
Использование указателей C2 : Нет

Коррекция смещения при чтении : 102
Способность читать области Lead-in и Lead-out : Нет
Заполнение пропущенных сэмплов тишиной : Да
Удаление блоков с тишиной в начале и конце : Нет
При вычислениях CRC использовались нулевые сэмплы : Да
Интерфейс : Встроенный Win32-интерфейс для Win NT/2000

Выходной формат : Пользовательский кодировщик
Выбранный битрейт : 896 kBit/s
Качество : Высокий
Добавление ID3-тега : Да
Утилита сжатия : C:\Program Files\Exact Audio Copy\FLAC\FLAC.EXE
Дополнительные параметры : -6 -V -T "ARTIST=%artist%" -T "TITLE=%title%" -T "ALBUM=%albumtitle%" -T "DATE=%year%" -T "TRACKNUMBER=%tracknr%" -T "GENRE=%genre%" -T "COMMENT=%comment%" -T "BAND=%albuminterpret%" -T "ALBUMARTIST=%albuminterpret%" -T "COMPOSER=%composer%" %haslyrics%–tag-from-file=LYRICS="%lyricsfile%"%haslyrics% -T "DISCNUMBER=%cdnumber%" -T "TOTALDISCS=%totalcds%" -T "TOTALTRACKS=%numtracks%" %hascover%–picture="%coverfile%"%hascover% %source% -o %dest%


TOC извлечённого CD

Трек | Старт | Длительность | Начальный сектор | Конечный сектор
––––––––––––––––––––––––––––––––––-
1 | 0:00.00 | 3:42.47 | 0 | 16696
2 | 3:42.47 | 2:26.25 | 16697 | 27671
3 | 6:08.72 | 1:51.21 | 27672 | 36017
4 | 8:00.18 | 2:57.55 | 36018 | 49347
5 | 10:57.73 | 4:21.17 | 49348 | 68939
6 | 15:19.15 | 2:09.37 | 68940 | 78651
7 | 17:28.52 | 2:26.11 | 78652 | 89612
8 | 19:54.63 | 2:43.30 | 89613 | 101867
9 | 22:38.18 | 2:20.72 | 101868 | 112439
10 | 24:59.15 | 2:34.57 | 112440 | 124046
11 | 27:33.72 | 2:50.33 | 124047 | 136829
12 | 30:24.30 | 2:45.13 | 136830 | 149217
13 | 33:09.43 | 2:19.55 | 149218 | 159697
14 | 35:29.23 | 4:10.00 | 159698 | 178447
15 | 39:39.23 | 2:10.25 | 178448 | 188222
16 | 41:49.48 | 2:36.06 | 188223 | 199928
17 | 44:25.54 | 3:03.04 | 199929 | 213657
18 | 47:28.58 | 3:27.52 | 213658 | 229234
19 | 50:56.35 | 2:04.52 | 229235 | 238586
20 | 53:01.12 | 2:07.73 | 238587 | 248184
21 | 55:09.10 | 3:11.21 | 248185 | 262530
22 | 58:20.31 | 2:43.52 | 262531 | 274807
23 | 61:04.08 | 2:28.58 | 274808 | 285965
24 | 63:32.66 | 2:28.70 | 285966 | 297135
25 | 66:01.61 | 2:52.04 | 297136 | 310039
26 | 68:53.65 | 6:06.27 | 310040 | 337516
27 | 75:00.17 | 2:09.51 | 337517 | 347242
28 | 77:09.68 | 2:41.25 | 347243 | 359342


Характеристики диапазона извлечения и сообщения об ошибках

Выбранный диапазон

Имя файла C:\Documents and Settings\Admin\Рабочий стол\Akella Presents - Rock'n'Roll vol.6 CD2 New!\Various Artists - Akella Presents - Rock'n'Roll vol.6 CD2 New!.wav

Пиковый уровень 100.0 %
Скорость извлечения 8.3 X
Качество диапазона 100.0 %
CRC теста 1D8EA06B
CRC копии 1D8EA06B
Копирование… OK

Ошибок не произошло

Конец отчёта

==== Контрольная сумма отчёта 4ABE0A9190D70EB5224088C25572EA1DC568D924E197BB493EB9DFF454DAD1B4 ====

VA - Akella Presents Vol. 6: Rock'n'Roll (2013)

All thanks go to blueshouse

Akella Presents in my Blog

Download VA - Akella Presents Vol. 6: Rock'n'Roll (2013):