Tags
Language
Tags

Alan Curtis, Il Complesso Barocco - Handel: Floridante (2007)

Posted By: ArlegZ
Alan Curtis, Il Complesso Barocco - Handel: Floridante (2007)

Alan Curtis, Il Complesso Barocco - Handel: Floridante (2007)
EAC | FLAC | Image (Cue & Log) ~ 857 Mb | Total time: 58.28+50.21+54.53 | Scans included
Classical | Label: Archiv Produktion | 477 6566 | Recorded: 2006

Handel wrote Floridante in 1722 for a London audience infatuated with Italian opera. The plot, like that of so many Baroque operas, was taken from ancient history and concerns romantic liaisons thrown into turmoil by political rivalries, in this case between Persia and Tyre. Handel wrote over 50 Italian operas, and it's remarkable that he was consistently able to summon such a high level of inventiveness and inspiration when faced repeatedly with librettos that must have come to look depressingly alike in the conventions of their labyrinthine plots. Handel, however, had strong enough musical and dramatic convictions that he refused to make alterations to the score of Floridante that would have changed the opera's character, after London's Royal Academy of Music informed him that changes in the performing personnel would require him to rewrite the vocal parts. Handel eventually made some adjustments, but stood firm about others – a bold position, considering the relatively low status of composers in the world of opera at the time. After the premiere with a less-than-ideal cast, Handel restored the score to his original intentions and it's that version that's heard on this recording.

Performer:
Floridande - Marijana Mijanović
Oronte - Vito Priante
Elmira - Joyce DiDonato
Rossane - Sharon Rostorf-Zamir
Timante - Roberta Invernizzi
Coralbo - Riccardo Novaro
Il Complesso Barocco
Conductor - Alan Curtis

Track List:
CD1:
01. Ouverture
02. Atto I. Aria: Dimmi, o spene (Elmira)
03. Recitativo: Oggi di Tracia (Elmira, Rossane)
04. Aria: Godi, o spene (Elmira)
05. Recitativo: Avventurosa Elmira! (Rossane)
06. Aria: Ma un dolce mio pensiero (Rossane)
07. Marche
08. Recitativo: Questo de' miei trionfi (Floridande, Elmira)
09. Aria: Alma mia (Floridande)
10. Recitativo: Giove compensator (Rossane, Floridande, Elmira, Timante)
11. Aria: Ma pria vedrò le stelle (Elmira)
12. Recitativo: Fammi bersaglio (Floridande)
13. Aria: Sventurato, godi, o core (Floridande)
14. Recitativo: Cinto d'allori (Rossane, Oronte)
15. Aria: Finché lo strale (Oronte)
16. Recitativo: Novo aspetto di cose (Rossane)
17. Aria: Sospiro, è vero (Rossane)
18. Recitativo: Per quali vie lontane (Timante)
19. Aria: Dopo il nembo e la procella (Timante)
20. Recitativo: Al primo cenno, sire (Floridande, Oronte)
21. Duetto: Ah, mia cara, se tu resti (Floridande, Elmira)
CD2:
01. Atto II. Recitativo: Ecco il vago mio sol (Timante, Rossane)
02. Aria: Lascioti, o bella, il volto (Timante)
03. Recitativo: Oh fortunati affetti miei (Rossane)
04. Aria: Gode l'alma innamorata (Rossane)
05. Recitativo: Difficil cosa è il ravvisarti (Timante, Floridante)
06. Aria: Bramo te sola (Floridande)
07. Recitativo: Oronte un messo invia (Floridande, Elmira, Rossane)
08. Aria: Barbaro, t'odio a morte (Elmira)
09. Recitativo: Convien lasciar libero il corso (Oronte)
10. Aria: Ma non s'aspetti, no (Rossane, Timante)
11. Recitativo: Ormai tutta silenzio (Rossane, Timante)
12. Duetto: Fuor di periglio (Rossane, Timante)
13. Arioso ed Accompagnato: Notte cara - Parmi ascoltare (Elmira)
14. Recitativo: O facil porta (Floridande, Elmira)
15. Aria: Tacerò, ma non potrai (Floridande)
16. Recitativo: Guardia a costei severa (Oronte)
17. Accompagnato e Recitativo: Sorte nemica (Elmira)
18. Aria: Ma che vuoi più da me (Elmira)
CD3:
01. Atto III. Recitativo: Oh sventuratie e vani (Rossane, Elmira, Coralbo)
02. Aria: Se risolvi abbandonarmi (Rossane)
03. Recitativo: Or mi si svela il grand' arcano (Coralbo, Elmira)
04. Aria: Non lasciar oppressa della sorte (Coralbo)
05. Recitativo: Elmira, a te ritorno (Oronte, Elmira)
06. Aria: Se dolce m'era già (Floridande)
07. Recitativo: Si mora, sì (Elmira)
08. Aria: Vivere per penare (Elmira)
09. Recitativo: Nella vasta città (Timante, Rossane)
10. Arietta: Vanne, segui 'l mio desio (Rossane)
11. Recitativo: Servasi alla mia bella (Timante)
12. Aria: Amor comanda (Timante)
13. Aria: Questi ceppi e quest' orrore (Floridande)
14. Recitativo: Misero amato prence (Elmira, Floridande)
15. Aria: Sì, coronar vogl'io (Elmira)
16. Recitativo: Ah, traditor Coralbo (Oronte)
17. Aria: Che veggio? Che sento? (Oronte)
18. Sinfonia
19. Recitativo: Fido e guerriero (Elmira, Floridande, Rossane, Timante)
20. Aria: Mia bella, godo che son per te (Floridande)
21. Recitativo: La cittade, la reggia (Elmira)
22. Coro: Quando pena la costanza


Exact Audio Copy V1.5 from 20. February 2020

EAC extraction logfile from 10. July 2020, 10:56

Alan Curtis, Il Complesso Barocco / Handel - Floridante CD1

Used drive : PIONEER DVD-RW DVR-218L Adapter: 1 ID: 1

Read mode : Secure
Utilize accurate stream : Yes
Defeat audio cache : Yes
Make use of C2 pointers : No

Read offset correction : 6
Overread into Lead-In and Lead-Out : No
Fill up missing offset samples with silence : Yes
Delete leading and trailing silent blocks : No
Null samples used in CRC calculations : Yes
Used interface : Native Win32 interface for Win NT & 2000

Used output format : User Defined Encoder
Selected bitrate : 128 kBit/s
Quality : High
Add ID3 tag : No
Command line compressor : C:\Program Files\Exact Audio Copy\Flac\flac.exe
Additional command line options : -V -8 -T "Date=%year%" -T "Genre=%genre%" %source%


TOC of the extracted CD

Track | Start | Length | Start sector | End sector
––––––––––––––––––––––––––––-
1 | 0:00.00 | 4:58.64 | 0 | 22413
2 | 4:58.64 | 2:14.67 | 22414 | 32530
3 | 7:13.56 | 0:42.05 | 32531 | 35685
4 | 7:55.61 | 1:59.34 | 35686 | 44644
5 | 9:55.20 | 0:46.50 | 44645 | 48144
6 | 10:41.70 | 3:06.34 | 48145 | 62128
7 | 13:48.29 | 1:21.43 | 62129 | 68246
8 | 15:09.72 | 0:57.04 | 68247 | 72525
9 | 16:07.01 | 5:03.19 | 72526 | 95269
10 | 21:10.20 | 3:55.51 | 95270 | 112945
11 | 25:05.71 | 4:18.69 | 112946 | 132364
12 | 29:24.65 | 0:32.22 | 132365 | 134786
13 | 29:57.12 | 6:06.16 | 134787 | 162252
14 | 36:03.28 | 1:06.72 | 162253 | 167274
15 | 37:10.25 | 2:59.38 | 167275 | 180737
16 | 40:09.63 | 1:17.46 | 180738 | 186558
17 | 41:27.34 | 3:57.74 | 186559 | 204407
18 | 45:25.33 | 0:29.56 | 204408 | 206638
19 | 45:55.14 | 2:38.62 | 206639 | 218550
20 | 48:34.01 | 1:58.24 | 218551 | 227424
21 | 50:32.25 | 7:55.45 | 227425 | 263094


Range status and errors

Selected range

Filename C:\ArlegZ\Handel - Floridante CD1.wav

Peak level 99.9 %
Extraction speed 1.8 X
Range quality 99.9 %
Test CRC ECA6B998
Copy CRC ECA6B998
Copy OK

No errors occurred


AccurateRip summary

Track 1 accurately ripped (confidence 28) [0A56641B] (AR v2)
Track 2 accurately ripped (confidence 28) [B4235EBD] (AR v2)
Track 3 accurately ripped (confidence 28) [1E020681] (AR v2)
Track 4 accurately ripped (confidence 28) [0B264FD7] (AR v2)
Track 5 accurately ripped (confidence 28) [AE6BF8A8] (AR v2)
Track 6 accurately ripped (confidence 28) [AA8A7AD5] (AR v2)
Track 7 accurately ripped (confidence 28) [6254E420] (AR v2)
Track 8 accurately ripped (confidence 28) [960309F7] (AR v2)
Track 9 accurately ripped (confidence 28) [F23CE58D] (AR v2)
Track 10 accurately ripped (confidence 28) [6C475A81] (AR v2)
Track 11 accurately ripped (confidence 28) [634FD59D] (AR v2)
Track 12 accurately ripped (confidence 28) [BF2DF5DD] (AR v2)
Track 13 accurately ripped (confidence 28) [53226386] (AR v2)
Track 14 accurately ripped (confidence 28) [3AC4EC8D] (AR v2)
Track 15 accurately ripped (confidence 28) [5BA1CBA6] (AR v2)
Track 16 accurately ripped (confidence 28) [845270CA] (AR v2)
Track 17 accurately ripped (confidence 28) [3B15CDF1] (AR v2)
Track 18 accurately ripped (confidence 28) [48A87551] (AR v2)
Track 19 accurately ripped (confidence 28) [4B8C0DBD] (AR v2)
Track 20 accurately ripped (confidence 28) [3866244C] (AR v2)
Track 21 accurately ripped (confidence 28) [2CFC50E3] (AR v2)

All tracks accurately ripped

End of status report

–– CUETools DB Plugin V2.1.6

[CTDB TOCID: yCp_LXqqCgtvrr1nd764LLbAvDY-] found
Submit result: yCp_LXqqCgtvrr1nd764LLbAvDY- has been confirmed
Track | CTDB Status
1 | (30/30) Accurately ripped
2 | (30/30) Accurately ripped
3 | (30/30) Accurately ripped
4 | (30/30) Accurately ripped
5 | (30/30) Accurately ripped
6 | (30/30) Accurately ripped
7 | (30/30) Accurately ripped
8 | (30/30) Accurately ripped
9 | (30/30) Accurately ripped
10 | (30/30) Accurately ripped
11 | (30/30) Accurately ripped
12 | (30/30) Accurately ripped
13 | (30/30) Accurately ripped
14 | (30/30) Accurately ripped
15 | (30/30) Accurately ripped
16 | (30/30) Accurately ripped
17 | (30/30) Accurately ripped
18 | (30/30) Accurately ripped
19 | (30/30) Accurately ripped
20 | (30/30) Accurately ripped
21 | (30/30) Accurately ripped


==== Log checksum C920C387C7C04CF1ABF931FAB039C0063712BB69B1A1F6B394E7FA5B2A6DD028 ====


Exact Audio Copy V1.5 from 20. February 2020

EAC extraction logfile from 10. July 2020, 11:53

Alan Curtis, Il Complesso Barocco / Handel - Floridante CD2

Used drive : PIONEER DVD-RW DVR-218L Adapter: 1 ID: 1

Read mode : Secure
Utilize accurate stream : Yes
Defeat audio cache : Yes
Make use of C2 pointers : No

Read offset correction : 6
Overread into Lead-In and Lead-Out : No
Fill up missing offset samples with silence : Yes
Delete leading and trailing silent blocks : No
Null samples used in CRC calculations : Yes
Used interface : Native Win32 interface for Win NT & 2000

Used output format : User Defined Encoder
Selected bitrate : 128 kBit/s
Quality : High
Add ID3 tag : No
Command line compressor : C:\Program Files\Exact Audio Copy\Flac\flac.exe
Additional command line options : -V -8 -T "Date=%year%" -T "Genre=%genre%" %source%


TOC of the extracted CD

Track | Start | Length | Start sector | End sector
––––––––––––––––––––––––––––-
1 | 0:00.00 | 1:17.06 | 0 | 5780
2 | 1:17.06 | 4:03.45 | 5781 | 24050
3 | 5:20.51 | 0:35.56 | 24051 | 26731
4 | 5:56.32 | 4:07.07 | 26732 | 45263
5 | 10:03.39 | 2:33.15 | 45264 | 56753
6 | 12:36.54 | 5:15.20 | 56754 | 80398
7 | 17:51.74 | 3:25.46 | 80399 | 95819
8 | 21:17.45 | 2:29.63 | 95820 | 107057
9 | 23:47.33 | 0:30.21 | 107058 | 109328
10 | 24:17.54 | 2:05.43 | 109329 | 118746
11 | 26:23.22 | 0:50.22 | 118747 | 122518
12 | 27:13.44 | 5:53.39 | 122519 | 149032
13 | 33:07.08 | 4:49.68 | 149033 | 170775
14 | 37:57.01 | 2:48.40 | 170776 | 183415
15 | 40:45.41 | 3:28.20 | 183416 | 199035
16 | 44:13.61 | 0:25.34 | 199036 | 200944
17 | 44:39.20 | 1:13.14 | 200945 | 206433
18 | 45:52.34 | 4:28.16 | 206434 | 226549


Range status and errors

Selected range

Filename C:\ArlegZ\Handel - Floridante CD2.wav

Peak level 99.9 %
Extraction speed 1.8 X
Range quality 100.0 %
Test CRC EE721FB0
Copy CRC EE721FB0
Copy OK

No errors occurred


AccurateRip summary

Track 1 accurately ripped (confidence 28) [D9E4F455] (AR v2)
Track 2 accurately ripped (confidence 28) [A1551017] (AR v2)
Track 3 accurately ripped (confidence 28) [E7857559] (AR v2)
Track 4 accurately ripped (confidence 28) [5E34F62F] (AR v2)
Track 5 accurately ripped (confidence 28) [E2A0B6EC] (AR v2)
Track 6 accurately ripped (confidence 28) [347F6682] (AR v2)
Track 7 accurately ripped (confidence 28) [3DD7766D] (AR v2)
Track 8 accurately ripped (confidence 28) [5282A3B6] (AR v2)
Track 9 accurately ripped (confidence 28) [48E7CBF6] (AR v2)
Track 10 accurately ripped (confidence 28) [B6F5A186] (AR v2)
Track 11 accurately ripped (confidence 28) [0E058148] (AR v2)
Track 12 accurately ripped (confidence 28) [3A0B58D3] (AR v2)
Track 13 accurately ripped (confidence 28) [C86820C0] (AR v2)
Track 14 accurately ripped (confidence 28) [A256D0CC] (AR v2)
Track 15 accurately ripped (confidence 28) [AAF37A1B] (AR v2)
Track 16 accurately ripped (confidence 28) [F47EA1CB] (AR v2)
Track 17 accurately ripped (confidence 28) [AC2A49B7] (AR v2)
Track 18 accurately ripped (confidence 28) [4F69AF6C] (AR v2)

All tracks accurately ripped

End of status report

–– CUETools DB Plugin V2.1.6

[CTDB TOCID: s41CF9MH0Qk_FiK5kpV1GDTZspk-] found
Submit result: s41CF9MH0Qk_FiK5kpV1GDTZspk- has been confirmed
Track | CTDB Status
1 | (30/30) Accurately ripped
2 | (30/30) Accurately ripped
3 | (30/30) Accurately ripped
4 | (30/30) Accurately ripped
5 | (30/30) Accurately ripped
6 | (30/30) Accurately ripped
7 | (30/30) Accurately ripped
8 | (30/30) Accurately ripped
9 | (30/30) Accurately ripped
10 | (30/30) Accurately ripped
11 | (30/30) Accurately ripped
12 | (30/30) Accurately ripped
13 | (30/30) Accurately ripped
14 | (30/30) Accurately ripped
15 | (30/30) Accurately ripped
16 | (30/30) Accurately ripped
17 | (30/30) Accurately ripped
18 | (29/30) Accurately ripped


==== Log checksum 77E761DE84E6CB6AFD5B7378113FA11C56C4C712CBFE9241C1EDBAFDA994432A ====


Exact Audio Copy V1.5 from 20. February 2020

EAC extraction logfile from 10. July 2020, 12:55

Alan Curtis, Il Complesso Barocco / Handel - Floridante CD3

Used drive : PIONEER DVD-RW DVR-218L Adapter: 1 ID: 1

Read mode : Secure
Utilize accurate stream : Yes
Defeat audio cache : Yes
Make use of C2 pointers : No

Read offset correction : 6
Overread into Lead-In and Lead-Out : No
Fill up missing offset samples with silence : Yes
Delete leading and trailing silent blocks : No
Null samples used in CRC calculations : Yes
Used interface : Native Win32 interface for Win NT & 2000

Used output format : User Defined Encoder
Selected bitrate : 128 kBit/s
Quality : High
Add ID3 tag : No
Command line compressor : C:\Program Files\Exact Audio Copy\Flac\flac.exe
Additional command line options : -V -8 -T "Date=%year%" -T "Genre=%genre%" %source%


TOC of the extracted CD

Track | Start | Length | Start sector | End sector
––––––––––––––––––––––––––––-
1 | 0:00.00 | 1:19.68 | 0 | 5992
2 | 1:19.68 | 3:55.58 | 5993 | 23675
3 | 5:15.51 | 0:38.16 | 23676 | 26541
4 | 5:53.67 | 3:59.22 | 26542 | 44488
5 | 9:53.14 | 3:28.62 | 44489 | 60150
6 | 13:22.01 | 6:53.21 | 60151 | 91146
7 | 20:15.22 | 1:01.20 | 91147 | 95741
8 | 21:16.42 | 3:41.14 | 95742 | 112330
9 | 24:57.56 | 0:55.04 | 112331 | 116459
10 | 25:52.60 | 0:56.47 | 116460 | 120706
11 | 26:49.32 | 0:27.20 | 120707 | 122751
12 | 27:16.52 | 2:32.13 | 122752 | 134164
13 | 29:48.65 | 4:48.13 | 134165 | 155777
14 | 34:37.03 | 3:15.60 | 155778 | 170462
15 | 37:52.63 | 3:57.13 | 170463 | 188250
16 | 41:50.01 | 0:32.00 | 188251 | 190650
17 | 42:22.01 | 1:34.40 | 190651 | 197740
18 | 43:56.41 | 1:04.14 | 197741 | 202554
19 | 45:00.55 | 2:02.36 | 202555 | 211740
20 | 47:03.16 | 5:02.35 | 211741 | 234425
21 | 52:05.51 | 0:18.62 | 234426 | 235837
22 | 52:24.38 | 2:28.36 | 235838 | 246973


Range status and errors

Selected range

Filename C:\ArlegZ\Handel - Floridante CD3.wav

Peak level 99.9 %
Extraction speed 1.8 X
Range quality 100.0 %
Test CRC F53DD7B3
Copy CRC F53DD7B3
Copy OK

No errors occurred


AccurateRip summary

Track 1 accurately ripped (confidence 28) [06D19048] (AR v2)
Track 2 accurately ripped (confidence 28) [3C5E4100] (AR v2)
Track 3 accurately ripped (confidence 28) [669D9EE9] (AR v2)
Track 4 accurately ripped (confidence 28) [46F2733B] (AR v2)
Track 5 accurately ripped (confidence 28) [DAFD0A5B] (AR v2)
Track 6 accurately ripped (confidence 28) [3AE1852E] (AR v2)
Track 7 accurately ripped (confidence 28) [27B110A4] (AR v2)
Track 8 accurately ripped (confidence 28) [F97AE8FC] (AR v2)
Track 9 accurately ripped (confidence 28) [072CEEF9] (AR v2)
Track 10 accurately ripped (confidence 28) [6498E4C2] (AR v2)
Track 11 accurately ripped (confidence 28) [115578E7] (AR v2)
Track 12 accurately ripped (confidence 28) [4F44B99D] (AR v2)
Track 13 accurately ripped (confidence 27) [03B92EE4] (AR v2)
Track 14 accurately ripped (confidence 28) [3600B9DF] (AR v2)
Track 15 accurately ripped (confidence 28) [D803139B] (AR v2)
Track 16 accurately ripped (confidence 28) [942DA157] (AR v2)
Track 17 accurately ripped (confidence 28) [71318206] (AR v2)
Track 18 accurately ripped (confidence 28) [E3D3AEAB] (AR v2)
Track 19 accurately ripped (confidence 28) [584ECCE7] (AR v2)
Track 20 accurately ripped (confidence 28) [4378D243] (AR v2)
Track 21 accurately ripped (confidence 28) [E84EB738] (AR v2)
Track 22 accurately ripped (confidence 28) [F4C53ED5] (AR v2)

All tracks accurately ripped

End of status report

–– CUETools DB Plugin V2.1.6

[CTDB TOCID: D30pI6TvNKJL3zHjzssdeXOTBYM-] found
Submit result: D30pI6TvNKJL3zHjzssdeXOTBYM- has been confirmed
Track | CTDB Status
1 | (30/30) Accurately ripped
2 | (30/30) Accurately ripped
3 | (30/30) Accurately ripped
4 | (30/30) Accurately ripped
5 | (30/30) Accurately ripped
6 | (30/30) Accurately ripped
7 | (30/30) Accurately ripped
8 | (30/30) Accurately ripped
9 | (30/30) Accurately ripped
10 | (30/30) Accurately ripped
11 | (30/30) Accurately ripped
12 | (30/30) Accurately ripped
13 | (30/30) Accurately ripped
14 | (30/30) Accurately ripped
15 | (30/30) Accurately ripped
16 | (30/30) Accurately ripped
17 | (30/30) Accurately ripped
18 | (30/30) Accurately ripped
19 | (30/30) Accurately ripped
20 | (30/30) Accurately ripped
21 | (30/30) Accurately ripped
22 | (30/30) Accurately ripped


==== Log checksum 5FCDD888D7B357FEE8543ED6B016C8C12B2DC43DE804D693251179F9F300737D ====

Alan Curtis, Il Complesso Barocco - Handel: Floridante (2007)