Tags
Language
Tags

Alan Curtis, Il Complesso Barocco - Handel: Rodelinda (2005)

Posted By: ArlegZ
Alan Curtis, Il Complesso Barocco - Handel: Rodelinda (2005)

Alan Curtis, Il Complesso Barocco - Handel: Rodelinda (2005)
EAC | FLAC | Image (Cue & Log) ~ 0,98 Gb | Total time: 66:10+59:01+67:15 | Scans included
Classical | Label: Archiv Produktion | 477 5391 | Recorded: 2004

Alan Curtis has done more than most to prove that many of Handel's 42 operas are first-rate music dramas – his Admeto, from 1977, was one of the first complete recordings of a Handel opera to feature period instruments and all voices at correct pitch without transpositions – but it is surprising to note that this is his first recording of an undisputed popular masterpiece. Rodelinda, first performed in February 1725, is a stunning work dominated by a title-heroine who remains devoted to her supposedly dead husband Bertarido and scorns the advances of his usurper Grimoaldo. The potency of Handel's score was enhanced by the complexity of the villain, whose lust-driven cruelty gradually crumbles into a desire to abdicate in order to find spiritual peace. The scene in which the penitent tyrant's life is saved from assassination by the fugitive Bertarido is among Handel's greatest dramatic moments.
–Gramophone Classical Music Guide

Performer:
Rodelinda - Simone Kermes
Bertarido - Marijana Mijanović
Grimoaldo - Steve Davislim
Eduige - Sonia Prina
Unulfo - Marie-Nicole Lemieux
Garibaldo - Vito Priante
Il Complesso Barocco
Conductor - Alan Curtis

Track List:
CD1:
01. Ouverture
02. Menuet
03. Atto I. Aria: Ho perduto il caro sposo (Rodelinda)
04. Recitativo: Regina? / Grimaoldo, nel mio presente stato (Grimoaldo, Rodelinda)
05. Aria: L'empio rigor del fato (Rodelinda)
06. Duca, vedesti mai più bel disprezzo? (Grimoaldo, Garibaldo)
07. Aria: Io già t'amai (Grimoaldo)
08. Recitativo: E tu dici d'amarmi? (Fduige, Garibaldo)
09. Aria: Lo farò, dirò: spietato (Eduige)
10. Recitativo: Eduige, t'inganni (Garibaldo)
11. Aria: Di Cupido impiego i vanni (Garibaldo)
12. Sinfonia ed Accompagnato: Pompe vane di morte (Bertarido)
13. Aria: Dove sei, amato bene? (Bertarido)
14. Recitativo: Ma giunge Unulfo, oh Dio! (Bertarido, Unulfo)
15. Aria: Ombre, piante, urne funeste (Rodelinda)
16. Accompagnato e Recitativo: Ombra del mio bel sol - Deh, Lascia! (Rodelinda, Bertarido, Unulfo)
17. Recitativo: Baci inutili e vani (Garibaldo, Bertarido, Unulfo, Rodelinda)
18. Aria: Morrai, sì; l'empia tua testa (Rodelinda)
19. Recitativo: E ben, duca, poss'io all'ardor (Grimoaldo, Garibaldo)
20. Aria: Se per te giungo a godere (Grimoaldo)
21. Recitativo: Unulfo, oh Dio! Quella è costanza? (Bertarido, Unulfo)
22. Aria: Sono i colpi della sorte (Unulfo)
23. Accompagnato: Sì, l'infida consorte (Bertarido)
24. Aria: Confusa si miri (Bertarido)
CD2:
01. Atto II. Recitativo: Già perdesti, o signora (Garibaldo, Eduige)
02. Aria: De'mieei scherni per far le vendette (Eduige)
03. Recitativo: Rodelinda, è pur ver? (Grimoaldo, Rodelinda, Unulfo, Garibaldo)
04. Aria: Spietati, io vi giurai (Rodelinda)
05. Recitativo: Unulfo, Garibaldo, in questo seno (Grimoaldo, Unulfo, Garibaldo)
06. Aria: Prigioniera ho l'alma in pena (Grimoaldo)
07. Recitativo: Massime così indegne (Unulfo, Garibaldo)
08. Aria: Tirannia gli diede il regno (Garibaldo)
09. Recitativo: Sì, sì, fellon, t'intendo (Unulfo)
10. Aria: Fra tempeste funeste (Unulfo)
11. Aria e Recitativo: Con rauco mormorio (Bertarido, Eduige)
12. Recitativo: Ah no, che non m'inganna (Eduige, Bertarido, Unulfo)
13. Aria: Scacciata dal suo nido (Bertarido)
14. Recitativo: Vive il mio sposo? (Rodelinda, Unulfo)
15. Aria: Ritorna, o caro e dolce mio tesoro (Rodelinda)
16. Recitativo: Ah sì! Ecco lo sposo! (Rodelinda, Bertarido, Grimoaldo)
17. Aria: Tuo trudo è mio rivale (Grimoaldo)
18. Recitativo: Non ti bastò, consorte (Rodelinda, Bertarido)
19. Duetto: Io t'abbraccio (Rodelinda, Bertarido)
CD3:
01. Atto III. Recitativo: Del german nel periglio (Eduige, Unulfo)
02. Aria: Un zeffiro spiro (Unulfo)
03. Recitativo: Con opra giusta io cancellar disegno (Eduige)
04. Aria: Quanto più fiera tempesta freme (Eduige)
05. Recitativo: O falso è Bertarido o fu mendace (Garibaldo, Grimoaldo)
06. Aria: Tra sospetti, affetti e timori (Grimoaldo)
07. Arioso: Chi di voi fu più infedele (Bertarido)
08. Accompagnato e Recitaticvo: Ma non so che dal remoto balcon (Bertarido, Unulfo)
09. Aria: Se 'l mio duol non è sì forte (Rodelinda)
10. Recitativo: Amico, ah! che a me duole (Bertarido, Unulfo)
11. Aria: Se fiera belva ha cinto (Bertarido)
12. Accompagnato: Fatto inferno è il mio petto (Grimoaldo)
13. Aria: Pastorello d'un povero armento (Grimoaldo)
14. Recitativo: Che miro? Amica sorte (Garibaldo, Grimoaldo)
15. Aria: Vivi, tiranno (Bertarido)
16. [Recitativo]: Dunque sei Bertarido? (Grimoaldo, Rodelinda)
17. Aria: Mio caro bene (Rodelinda)
18. Recitativo: Sposa, figlio, sorella, amici (Bertarido)
19. Duetto: D'ogni crudel martir (Rodelinda, Bertarido)
20. Coro: Dopo la notte oscura
21. Appendice. Aria: Sono i colpi della sorte (Unulfo)


Exact Audio Copy V1.5 from 20. February 2020

EAC extraction logfile from 9. July 2020, 14:35

Alan Curtis, Il Complesso Barocco / Handel - Rodelinda CD1

Used drive : PIONEER DVD-RW DVR-218L Adapter: 1 ID: 1

Read mode : Secure
Utilize accurate stream : Yes
Defeat audio cache : Yes
Make use of C2 pointers : No

Read offset correction : 6
Overread into Lead-In and Lead-Out : No
Fill up missing offset samples with silence : Yes
Delete leading and trailing silent blocks : No
Null samples used in CRC calculations : Yes
Used interface : Native Win32 interface for Win NT & 2000

Used output format : User Defined Encoder
Selected bitrate : 128 kBit/s
Quality : High
Add ID3 tag : No
Command line compressor : C:\Program Files\Exact Audio Copy\Flac\flac.exe
Additional command line options : -V -8 -T "Date=%year%" -T "Genre=%genre%" %source%


TOC of the extracted CD

Track | Start | Length | Start sector | End sector
––––––––––––––––––––––––––––-
1 | 0:00.00 | 4:03.63 | 0 | 18287
2 | 4:03.63 | 2:40.42 | 18288 | 30329
3 | 6:44.30 | 2:51.15 | 30330 | 43169
4 | 9:35.45 | 1:07.24 | 43170 | 48218
5 | 10:42.69 | 4:28.74 | 48219 | 68392
6 | 15:11.68 | 1:29.68 | 68393 | 75135
7 | 16:41.61 | 3:45.43 | 75136 | 92053
8 | 20:27.29 | 0:34.39 | 92054 | 94642
9 | 21:01.68 | 3:18.37 | 94643 | 109529
10 | 24:20.30 | 0:20.70 | 109530 | 111099
11 | 24:41.25 | 4:14.23 | 111100 | 130172
12 | 28:55.48 | 1:58.67 | 130173 | 139089
13 | 30:54.40 | 4:52.61 | 139090 | 161050
14 | 35:47.26 | 1:58.54 | 161051 | 169954
15 | 37:46.05 | 5:40.31 | 169955 | 195485
16 | 43:26.36 | 0:52.23 | 195486 | 199408
17 | 44:18.59 | 1:53.29 | 199409 | 207912
18 | 46:12.13 | 4:30.60 | 207913 | 228222
19 | 50:42.73 | 0:40.63 | 228223 | 231285
20 | 51:23.61 | 3:36.51 | 231286 | 247536
21 | 55:00.37 | 0:50.57 | 247537 | 251343
22 | 55:51.19 | 5:04.03 | 251344 | 274146
23 | 60:55.22 | 0:19.18 | 274147 | 275589
24 | 61:14.40 | 4:55.07 | 275590 | 297721


Range status and errors

Selected range

Filename C:\ArlegZ\Handel - Rodelinda CD1.wav

Peak level 99.9 %
Extraction speed 1.9 X
Range quality 100.0 %
Test CRC D622F7D7
Copy CRC D622F7D7
Copy OK

No errors occurred


AccurateRip summary

Track 1 accurately ripped (confidence 33) [B1F9207E] (AR v2)
Track 2 accurately ripped (confidence 33) [D995E922] (AR v2)
Track 3 accurately ripped (confidence 33) [80BB2E53] (AR v2)
Track 4 accurately ripped (confidence 33) [EE74DE1F] (AR v2)
Track 5 accurately ripped (confidence 33) [3D9BE34E] (AR v2)
Track 6 accurately ripped (confidence 33) [19966BDF] (AR v2)
Track 7 accurately ripped (confidence 33) [930829B8] (AR v2)
Track 8 accurately ripped (confidence 33) [C60D20E9] (AR v2)
Track 9 accurately ripped (confidence 33) [5BDD3C40] (AR v2)
Track 10 accurately ripped (confidence 33) [0F538E14] (AR v2)
Track 11 accurately ripped (confidence 32) [4DA7D6A2] (AR v2)
Track 12 accurately ripped (confidence 32) [3820B1EF] (AR v2)
Track 13 accurately ripped (confidence 33) [02753090] (AR v2)
Track 14 accurately ripped (confidence 33) [BB51FC58] (AR v2)
Track 15 accurately ripped (confidence 33) [1FC6BCB5] (AR v2)
Track 16 accurately ripped (confidence 33) [76742BEA] (AR v2)
Track 17 accurately ripped (confidence 33) [9EC87193] (AR v2)
Track 18 accurately ripped (confidence 33) [6CB5CC9E] (AR v2)
Track 19 accurately ripped (confidence 33) [EC848E62] (AR v2)
Track 20 accurately ripped (confidence 33) [F54D1542] (AR v2)
Track 21 accurately ripped (confidence 33) [8799C2AA] (AR v2)
Track 22 accurately ripped (confidence 33) [C5681B06] (AR v2)
Track 23 accurately ripped (confidence 33) [47CE663E] (AR v2)
Track 24 accurately ripped (confidence 33) [F3C2D2B7] (AR v2)

All tracks accurately ripped

End of status report

–– CUETools DB Plugin V2.1.6

[CTDB TOCID: 00ARvAzAafQLo5HKGa730a2ZknI-] found
Submit result: 00ARvAzAafQLo5HKGa730a2ZknI- has been confirmed
Track | CTDB Status
1 | (45/45) Accurately ripped
2 | (45/45) Accurately ripped
3 | (45/45) Accurately ripped
4 | (45/45) Accurately ripped
5 | (45/45) Accurately ripped
6 | (45/45) Accurately ripped
7 | (45/45) Accurately ripped
8 | (45/45) Accurately ripped
9 | (45/45) Accurately ripped
10 | (45/45) Accurately ripped
11 | (45/45) Accurately ripped
12 | (45/45) Accurately ripped
13 | (45/45) Accurately ripped
14 | (45/45) Accurately ripped
15 | (45/45) Accurately ripped
16 | (45/45) Accurately ripped
17 | (45/45) Accurately ripped
18 | (45/45) Accurately ripped
19 | (45/45) Accurately ripped
20 | (45/45) Accurately ripped
21 | (45/45) Accurately ripped
22 | (45/45) Accurately ripped
23 | (45/45) Accurately ripped
24 | (45/45) Accurately ripped


==== Log checksum 1399286752D6BC8144A24569337FB4C194A620E9D56262502F0634612302FA2A ====


Exact Audio Copy V1.5 from 20. February 2020

EAC extraction logfile from 9. July 2020, 15:43

Alan Curtis, Il Complesso Barocco / Handel - Rodelinda CD2

Used drive : PIONEER DVD-RW DVR-218L Adapter: 1 ID: 1

Read mode : Secure
Utilize accurate stream : Yes
Defeat audio cache : Yes
Make use of C2 pointers : No

Read offset correction : 6
Overread into Lead-In and Lead-Out : No
Fill up missing offset samples with silence : Yes
Delete leading and trailing silent blocks : No
Null samples used in CRC calculations : Yes
Used interface : Native Win32 interface for Win NT & 2000

Used output format : User Defined Encoder
Selected bitrate : 128 kBit/s
Quality : High
Add ID3 tag : No
Command line compressor : C:\Program Files\Exact Audio Copy\Flac\flac.exe
Additional command line options : -V -8 -T "Date=%year%" -T "Genre=%genre%" %source%


TOC of the extracted CD

Track | Start | Length | Start sector | End sector
––––––––––––––––––––––––––––-
1 | 0:00.00 | 1:56.40 | 0 | 8739
2 | 1:56.40 | 4:20.49 | 8740 | 28288
3 | 6:17.14 | 2:03.59 | 28289 | 37572
4 | 8:20.73 | 4:50.08 | 37573 | 59330
5 | 13:11.06 | 0:58.14 | 59331 | 63694
6 | 14:09.20 | 5:04.09 | 63695 | 86503
7 | 19:13.29 | 0:35.72 | 86504 | 89200
8 | 19:49.26 | 2:51.16 | 89201 | 102041
9 | 22:40.42 | 0:27.15 | 102042 | 104081
10 | 23:07.57 | 4:04.23 | 104082 | 122404
11 | 27:12.05 | 6:02.62 | 122405 | 149616
12 | 33:14.67 | 2:49.01 | 149617 | 162292
13 | 36:03.68 | 4:26.68 | 162293 | 182310
14 | 40:30.61 | 0:56.01 | 182311 | 186511
15 | 41:26.62 | 3:58.28 | 186512 | 204389
16 | 45:25.15 | 2:49.45 | 204390 | 217109
17 | 48:14.60 | 3:12.29 | 217110 | 231538
18 | 51:27.14 | 0:44.14 | 231539 | 234852
19 | 52:11.28 | 6:49.39 | 234853 | 265566


Range status and errors

Selected range

Filename C:\ArlegZ\Handel - Rodelinda CD2.wav

Peak level 99.9 %
Extraction speed 1.9 X
Range quality 100.0 %
Test CRC 34EAF3D6
Copy CRC 34EAF3D6
Copy OK

No errors occurred


AccurateRip summary

Track 1 accurately ripped (confidence 33) [9E2F12C9] (AR v2)
Track 2 accurately ripped (confidence 33) [B5C9D996] (AR v2)
Track 3 accurately ripped (confidence 33) [ACED4231] (AR v2)
Track 4 accurately ripped (confidence 33) [77BAF10A] (AR v2)
Track 5 accurately ripped (confidence 33) [0C3514E9] (AR v2)
Track 6 accurately ripped (confidence 33) [13A755E6] (AR v2)
Track 7 accurately ripped (confidence 33) [89746C01] (AR v2)
Track 8 accurately ripped (confidence 33) [8FA5CD44] (AR v2)
Track 9 accurately ripped (confidence 33) [7F7FA27B] (AR v2)
Track 10 accurately ripped (confidence 33) [1D103B35] (AR v2)
Track 11 accurately ripped (confidence 33) [93ADCBC8] (AR v2)
Track 12 accurately ripped (confidence 33) [523360DB] (AR v2)
Track 13 accurately ripped (confidence 33) [7A6D48C6] (AR v2)
Track 14 accurately ripped (confidence 33) [B055BB71] (AR v2)
Track 15 accurately ripped (confidence 33) [7B9983C4] (AR v2)
Track 16 accurately ripped (confidence 33) [42207970] (AR v2)
Track 17 accurately ripped (confidence 33) [B5085C36] (AR v2)
Track 18 accurately ripped (confidence 33) [B1BE99F6] (AR v2)
Track 19 accurately ripped (confidence 33) [AE0E4FD5] (AR v2)

All tracks accurately ripped

End of status report

–– CUETools DB Plugin V2.1.6

[CTDB TOCID: PpPgGb_tKQjYVjKGoHifTNh2bwM-] found
Submit result: PpPgGb_tKQjYVjKGoHifTNh2bwM- has been confirmed
Track | CTDB Status
1 | (49/49) Accurately ripped
2 | (49/49) Accurately ripped
3 | (49/49) Accurately ripped
4 | (49/49) Accurately ripped
5 | (49/49) Accurately ripped
6 | (48/49) Accurately ripped
7 | (49/49) Accurately ripped
8 | (49/49) Accurately ripped
9 | (49/49) Accurately ripped
10 | (49/49) Accurately ripped
11 | (49/49) Accurately ripped
12 | (49/49) Accurately ripped
13 | (49/49) Accurately ripped
14 | (49/49) Accurately ripped
15 | (48/49) Accurately ripped
16 | (49/49) Accurately ripped
17 | (49/49) Accurately ripped
18 | (49/49) Accurately ripped
19 | (49/49) Accurately ripped


==== Log checksum 12157D0761CB6611A1DC7546BFBFCE51995F680EF4F60CE656E2E1BD07840D5B ====


Exact Audio Copy V1.5 from 20. February 2020

EAC extraction logfile from 9. July 2020, 16:54

Alan Curtis, Il Complesso Barocco / Handel - Rodelinda CD3

Used drive : PIONEER DVD-RW DVR-218L Adapter: 1 ID: 1

Read mode : Secure
Utilize accurate stream : Yes
Defeat audio cache : Yes
Make use of C2 pointers : No

Read offset correction : 6
Overread into Lead-In and Lead-Out : No
Fill up missing offset samples with silence : Yes
Delete leading and trailing silent blocks : No
Null samples used in CRC calculations : Yes
Used interface : Native Win32 interface for Win NT & 2000

Used output format : User Defined Encoder
Selected bitrate : 128 kBit/s
Quality : High
Add ID3 tag : No
Command line compressor : C:\Program Files\Exact Audio Copy\Flac\flac.exe
Additional command line options : -V -8 -T "Date=%year%" -T "Genre=%genre%" %source%


TOC of the extracted CD

Track | Start | Length | Start sector | End sector
––––––––––––––––––––––––––––-
1 | 0:00.00 | 1:18.24 | 0 | 5873
2 | 1:18.24 | 5:33.74 | 5874 | 30922
3 | 6:52.23 | 0:15.65 | 30923 | 32112
4 | 7:08.13 | 3:26.02 | 32113 | 47564
5 | 10:34.15 | 1:15.57 | 47565 | 53246
6 | 11:49.72 | 4:17.47 | 53247 | 72568
7 | 16:07.44 | 2:52.62 | 72569 | 85530
8 | 19:00.31 | 4:51.15 | 85531 | 107370
9 | 23:51.46 | 6:41.03 | 107371 | 137448
10 | 30:32.49 | 0:56.59 | 137449 | 141707
11 | 31:29.33 | 4:33.24 | 141708 | 162206
12 | 36:02.57 | 3:23.63 | 162207 | 177494
13 | 39:26.45 | 3:52.56 | 177495 | 194950
14 | 43:19.26 | 1:14.42 | 194951 | 200542
15 | 44:33.68 | 5:24.31 | 200543 | 224873
16 | 49:58.24 | 1:15.65 | 224874 | 230563
17 | 51:14.14 | 3:54.19 | 230564 | 248132
18 | 55:08.33 | 0:31.09 | 248133 | 250466
19 | 55:39.42 | 5:25.32 | 250467 | 274873
20 | 61:04.74 | 2:02.72 | 274874 | 284095
21 | 63:07.71 | 4:07.27 | 284096 | 302647


Range status and errors

Selected range

Filename C:\ArlegZ\Handel - Rodelinda CD3.wav

Peak level 99.9 %
Extraction speed 2.0 X
Range quality 100.0 %
Test CRC 1CF024E1
Copy CRC 1CF024E1
Copy OK

No errors occurred


AccurateRip summary

Track 1 accurately ripped (confidence 33) [7368879D] (AR v2)
Track 2 accurately ripped (confidence 33) [0E5111C5] (AR v2)
Track 3 accurately ripped (confidence 33) [6ADC71CE] (AR v2)
Track 4 accurately ripped (confidence 33) [28F101DF] (AR v2)
Track 5 accurately ripped (confidence 33) [3CC193DE] (AR v2)
Track 6 accurately ripped (confidence 33) [73CAF215] (AR v2)
Track 7 accurately ripped (confidence 33) [BCE7FEFA] (AR v2)
Track 8 accurately ripped (confidence 33) [89764DD0] (AR v2)
Track 9 accurately ripped (confidence 33) [F9961CAF] (AR v2)
Track 10 accurately ripped (confidence 33) [7983782F] (AR v2)
Track 11 accurately ripped (confidence 33) [BA961B37] (AR v2)
Track 12 accurately ripped (confidence 33) [6AAE8995] (AR v2)
Track 13 accurately ripped (confidence 33) [57544885] (AR v2)
Track 14 accurately ripped (confidence 33) [D6D7E024] (AR v2)
Track 15 accurately ripped (confidence 32) [63CAFE22] (AR v2)
Track 16 accurately ripped (confidence 33) [67A2FA2B] (AR v2)
Track 17 accurately ripped (confidence 32) [F74BD4AD] (AR v2)
Track 18 accurately ripped (confidence 33) [393E975C] (AR v2)
Track 19 accurately ripped (confidence 33) [52B532AF] (AR v2)
Track 20 accurately ripped (confidence 33) [0A1B16CD] (AR v2)
Track 21 accurately ripped (confidence 33) [153785E9] (AR v2)

All tracks accurately ripped

End of status report

–– CUETools DB Plugin V2.1.6

[CTDB TOCID: keVkaOkJeBTPEHzRu_95HMCrns8-] found
Submit result: keVkaOkJeBTPEHzRu_95HMCrns8- has been confirmed
Track | CTDB Status
1 | (45/45) Accurately ripped
2 | (45/45) Accurately ripped
3 | (45/45) Accurately ripped
4 | (45/45) Accurately ripped
5 | (45/45) Accurately ripped
6 | (45/45) Accurately ripped
7 | (45/45) Accurately ripped
8 | (45/45) Accurately ripped
9 | (44/45) Accurately ripped
10 | (45/45) Accurately ripped
11 | (45/45) Accurately ripped
12 | (45/45) Accurately ripped
13 | (45/45) Accurately ripped
14 | (45/45) Accurately ripped
15 | (45/45) Accurately ripped
16 | (45/45) Accurately ripped
17 | (45/45) Accurately ripped
18 | (45/45) Accurately ripped
19 | (44/45) Accurately ripped
20 | (44/45) Accurately ripped
21 | (45/45) Accurately ripped


==== Log checksum 6CE17DA2B0CC433E71988BB1D9BEBA68D765E243CBB3B7A5F7533CF3D302C13E ====

Alan Curtis, Il Complesso Barocco - Handel: Rodelinda (2005)