Subcategories

Alan Curtis, Il Complesso Barocco - Vivaldi: Il Giustino (2002)

Posted By: ArlegZ
Alan Curtis, Il Complesso Barocco - Vivaldi: Il Giustino (2002)

Alan Curtis, Il Complesso Barocco - Vivaldi: Il Giustino (2002)
EAC | FLAC | Image (Cue & Log) ~ 655 Mb | Total time: 56:41+79:32 | Scans included
Classical | Label: Virgin Veritas | # 5 45518 2 | Recorded: 2001

Supreme master of the Baroque concerto and one of the finest composers of sacred music, Vivaldi is now also being rediscovered as an opera composer of genius. Some credit for this must go to Alan Curtis and Il Complesso Barocco, whose performances of Giustino since 1985 have made this colourful and dramatic work the most widely played of Vivaldi's operas in modern times. Giustino contains an endless flow of Vivaldian melodic inspiration and inventive orchestration; the score calls for a psaltery and for birdsong, while the goddess Fortune descends to the tune of Spring from the Four Seasons. This first recording is based on a concert performance in Rotterdam in 2001; the fine cast is headed by Dominique Labelle as the empress Arianna and Francesca Provvisionato as the plough-boy emperor Giustino.
Antonio Vivaldi’s opera Il Giustino, composed in 1724 for the Teatro Capranico in Rome, is a very long work in its complete version, "an opera of excessive length even for the patient public of the eighteenth century," says Alan Curtis in his notes to this recording. He defends his use of "judicious" cutting in reining in this long work, and explains why he has removed or kept certain sections. This is, therefore, a "version" of this opera.
But, in the end, this is a delightful recording. The musicians are smooth and excellent, the singers top-notch, and the music over two hours of pleasure.
–Kirk McElhearn

Performer:
Anastasio - Marina Comparato
Arianna - Dominique Labelle
Giustino - Francesca Provvisionato
Leocasta - Geraldine McGreevy
Vitaliano - Leonardo De Lisi
Amanzio - Laura Cherici
Il Complesso Barocco
Conductor - Alan Curtis

Track List:
CD1
01. Sinfonia: I. Allegro
02. II. Andante
03. III. Allegro
04. Atto I. Recitativo: Febo, che non mai stanco (Arianna)
05. Aria con coro: Viva Augusto eterno impero (Arianna, Coro)
06. Recitativo: Da questa man, che al mio destin dà legge (Anastasio)
07. Aria con coro: Viva Arianna, e il suo bel core (Anastasio, Coro)
08. Recitativo: Il barbaro nemico (Amanzio, Anastasio, Polidarte, Arianna)
09. Aria: Un vostro sguardo (Anastasio)
10. Recitativo: Arianna, che pensi? (Arianna)
11. Aria: Sole degl'occhi miei (Arianna)
12. Recitativo: Deh, perché non poss'io (Giustino)
13. Aria: Bel riposo de' mortali (Giustino)
14. Sinfonia
15. Recitativo: Giustin, lascia i riposi (Fortuna)
16. Aria: Della tua sorte (Fortuna)
17. Recitativo: Oh chiunque tu sii, ch'ora m'inviti (Giustino, Leocasta)
18. Aria: Nacque al bosco (Leocasta)
19. Recitativo: Già s'avanza la notte (Anastasio, Amanzio)
20. Aria: La gloria del mio sangue (Amanzio)
21. Recitativo: Corro all 'impresa (Anastasio)
22. Aria: Vedrò con mio diletto (Anastasio)
23. Recitativo: Gran signora, ove il fato (Giustino)
24. Aria: Allor che mi vedrò (Giustino)
25. Aria: All`armi, o guerrieri! (Vitaliano)
26. Recitativo: Amor! Cieli! Che miro? (Vitaliano, Arianna)
27. Aria: Vanne si, superba, va (Vitaliano)
28. Recitativo: Olà, costei si esponga (Vitaliano, Arianna)
29. Aria: Mio dolce amato sposo (Arianna)
CD2:
01. Atto II. Recitativo: Al dispetto dell`onde (Giustino, Anastasio)
02. Aria: Sento in seno ch'in pioggia di lagrime (Anastasio)
03. Arioso e recitativo: Numi, che il ciel reggete (Arianna, Giustino, Echi, Anastasio)
04. Duetto: Mio bel tesoro, mia dolce speme (Arianna, Anastasio)
05. Recitativo: Ecco tranquillo il mare (Arianna, Anastasio)
06. Aria: Per noi soave e bella (Arianna)
07. Recitativo: Troppo fosti, o mio core (Vitaliano)
08. Aria: Quel torrente che s'innalza (Vitaliano)
09. Recitativo: Dopo il penoso orrore (Arianna, Leocasta)
10. Aria: Senti l'aura che leggiera (Leocasta)
11. Recitativo: Dir cosi non poss'io (Arianna)
12. Aria: Augelletti garruletti (Arianna)
13. Aria: Verdi lauri (Anastasio)
14. Recitativo: Vieni, barbaro, vieni (Giustino, Vitaliano, Anastasio, Amanzio)
15. Aria: Su l`altar di questo Nume (Giustino)
16. Recitativo: Signore, a' tuoi trionfi (Amanzio, Anastasio)
17. Aria: Taci per poco ancora (Anastasio)
18. Recitativo: Dell`empio Vitalian domo è l'orgoglio (Anastasio, Arianna, Amanzio)
19. Aria: Se all`amor, ch'io porto al trono (Anastasio)
20. Recitativo: Come! Tu nutri in seno (Giustino, Leocasta)
21. Aria: Sventurata navicella (Leocasta)
22. Recitativo: Sorte, che m'invitasti (Giustino)
23. Aria: Ho nel petto un cor si forte (Giustino)
24. Atto III. Recitativo: [Amici], eccoci in salvo (Vitaliano)
25. Aria: Il piacer della vendetta (Vitaliano)
26. Recitativo: Mal soffre il core amante (Arianna)
27. Aria: Quell`amoroso ardor (Arianna)
28. Recitativo: Amato sposo (Arianna, Anastasio, Leocasta, Giustino)
29. Senza l`amato ben (Leocasta)
30. Or che cinto ho il crin d`alloro (Amanzio)
31. Recitativo: Pur m`arrisero i fati (Amanzio, Anastasio, Arianna, Giustino, Vitaliano, Popolo)
32. Duetto: In braccio a te (Arianna, Anastasio)
33. Recitativo: Vieni, famoso eroe (Anastasio, Popolo)
34. Coro: Dopo i nembi e le procelle


Exact Audio Copy V1.3 from 2. September 2016

EAC extraction logfile from 8. August 2018, 23:54

Alan Curtis / Vivaldi: Il Giustino (Disc 1)

Used drive : TSSTcorpDVDWBD SE-406AB Adapter: 1 ID: 2

Read mode : Secure
Utilize accurate stream : Yes
Defeat audio cache : Yes
Make use of C2 pointers : No

Read offset correction : 6
Overread into Lead-In and Lead-Out : No
Fill up missing offset samples with silence : Yes
Delete leading and trailing silent blocks : No
Null samples used in CRC calculations : Yes
Used interface : Native Win32 interface for Win NT & 2000

Used output format : User Defined Encoder
Selected bitrate : 1024 kBit/s
Quality : High
Add ID3 tag : No
Command line compressor : C:\Program Files (x86)\Exact Audio Copy\FLAC\FLAC.EXE
Additional command line options : -8 -e -p -V -T "ARTIST=%artist%" -T "TITLE=%title%" -T "ALBUM=%albumtitle%" -T "DATE=%year%" -T "TRACKNUMBER=%tracknr%" -T "GENRE=%genre%" -T "PERFORMER=%albuminterpret%" -T "COMPOSER=%composer%" %haslyrics%–tag-from-file=LYRICS="%lyricsfile%"%haslyrics% -T "ALBUMARTIST=%albumartist%" -T "DISCNUMBER=%cdnumber%" -T "TOTALDISCS=%totalcds%" -T "TOTALTRACKS=%numtracks%" -T "COMMENT=%comment%" %source% -o %dest%


TOC of the extracted CD

Track | Start | Length | Start sector | End sector
––––––––––––––––––––––––––––-
1 | 0:00.33 | 2:18.60 | 33 | 10442
2 | 2:19.18 | 2:40.00 | 10443 | 22442
3 | 4:59.18 | 0:42.07 | 22443 | 25599
4 | 5:41.25 | 0:35.30 | 25600 | 28254
5 | 6:16.55 | 1:09.20 | 28255 | 33449
6 | 7:26.00 | 0:20.40 | 33450 | 34989
7 | 7:46.40 | 0:49.47 | 34990 | 38711
8 | 8:36.12 | 1:22.43 | 38712 | 44904
9 | 9:58.55 | 3:09.02 | 44905 | 59081
10 | 13:07.57 | 0:32.58 | 59082 | 61539
11 | 13:40.40 | 3:05.53 | 61540 | 75467
12 | 16:46.18 | 1:14.03 | 75468 | 81020
13 | 18:00.21 | 3:02.51 | 81021 | 94721
14 | 21:02.72 | 1:00.06 | 94722 | 99227
15 | 22:03.03 | 0:58.37 | 99228 | 103614
16 | 23:01.40 | 1:54.68 | 103615 | 112232
17 | 24:56.33 | 1:26.20 | 112233 | 118702
18 | 26:22.53 | 2:58.70 | 118703 | 132122
19 | 29:21.48 | 0:29.44 | 132123 | 134341
20 | 29:51.17 | 2:20.73 | 134342 | 144914
21 | 32:12.15 | 0:21.38 | 144915 | 146527
22 | 32:33.53 | 5:24.17 | 146528 | 170844
23 | 37:57.70 | 0:21.58 | 170845 | 172477
24 | 38:19.53 | 3:06.01 | 172478 | 186428
25 | 41:25.54 | 1:09.66 | 186429 | 191669
26 | 42:35.45 | 2:51.65 | 191670 | 204559
27 | 45:27.35 | 3:05.73 | 204560 | 218507
28 | 48:33.33 | 1:11.50 | 218508 | 223882
29 | 49:45.08 | 6:54.41 | 223883 | 254973


Range status and errors

Selected range

Filename K:\Rips\Vivaldi - Il Giustino - Curtis\CD1\Alan Curtis - Vivaldi- Il Giustino (Disc 1).wav

Peak level 100.0 %
Extraction speed 3.8 X
Range quality 100.0 %
Test CRC 62760E2A
Copy CRC 62760E2A
Copy OK

No errors occurred


AccurateRip summary

Track 1 accurately ripped (confidence 12) [60D6EA8A] (AR v2)
Track 2 accurately ripped (confidence 12) [4184C1F5] (AR v2)
Track 3 accurately ripped (confidence 12) [B3B1FF74] (AR v2)
Track 4 accurately ripped (confidence 12) [81567FF9] (AR v2)
Track 5 accurately ripped (confidence 12) [3E64F667] (AR v2)
Track 6 accurately ripped (confidence 12) [FDB33AFE] (AR v2)
Track 7 accurately ripped (confidence 12) [DD5985AE] (AR v2)
Track 8 accurately ripped (confidence 12) [24118163] (AR v2)
Track 9 accurately ripped (confidence 12) [DC4D7A9F] (AR v2)
Track 10 accurately ripped (confidence 12) [E29903DF] (AR v2)
Track 11 accurately ripped (confidence 12) [5DEBA735] (AR v2)
Track 12 accurately ripped (confidence 12) [7D1CDCF3] (AR v2)
Track 13 accurately ripped (confidence 12) [C9736C6B] (AR v2)
Track 14 accurately ripped (confidence 12) [91286440] (AR v2)
Track 15 accurately ripped (confidence 12) [C9054BD1] (AR v2)
Track 16 accurately ripped (confidence 12) [D2C63D36] (AR v2)
Track 17 accurately ripped (confidence 12) [4B0B172B] (AR v2)
Track 18 accurately ripped (confidence 12) [A93F8F22] (AR v2)
Track 19 accurately ripped (confidence 12) [E2D46FAB] (AR v2)
Track 20 accurately ripped (confidence 12) [4506C9EE] (AR v2)
Track 21 accurately ripped (confidence 12) [B833E94F] (AR v2)
Track 22 accurately ripped (confidence 12) [55085569] (AR v2)
Track 23 accurately ripped (confidence 12) [B1C6F677] (AR v2)
Track 24 accurately ripped (confidence 12) [0E135BF0] (AR v2)
Track 25 accurately ripped (confidence 12) [0D7361A0] (AR v2)
Track 26 accurately ripped (confidence 12) [64E1C838] (AR v2)
Track 27 accurately ripped (confidence 12) [1A42990F] (AR v2)
Track 28 accurately ripped (confidence 12) [A8B3F101] (AR v2)
Track 29 accurately ripped (confidence 12) [F0E28BBE] (AR v2)

All tracks accurately ripped

End of status report

–– CUETools DB Plugin V2.1.6

[CTDB TOCID: .syjIbCglNWx6gfcq6ay7K7s3.Q-] found
Submit result: .syjIbCglNWx6gfcq6ay7K7s3.Q- has been confirmed
Track | CTDB Status
1 | (10/10) Accurately ripped
2 | ( 9/10) Accurately ripped
3 | ( 9/10) Accurately ripped
4 | ( 9/10) Accurately ripped
5 | ( 9/10) Accurately ripped
6 | ( 9/10) Accurately ripped
7 | ( 9/10) Accurately ripped
8 | ( 9/10) Accurately ripped
9 | ( 9/10) Accurately ripped
10 | ( 9/10) Accurately ripped
11 | ( 9/10) Accurately ripped
12 | ( 9/10) Accurately ripped
13 | ( 9/10) Accurately ripped
14 | ( 9/10) Accurately ripped
15 | ( 9/10) Accurately ripped
16 | ( 9/10) Accurately ripped
17 | ( 9/10) Accurately ripped
18 | ( 9/10) Accurately ripped
19 | ( 9/10) Accurately ripped
20 | ( 9/10) Accurately ripped
21 | ( 9/10) Accurately ripped
22 | ( 9/10) Accurately ripped
23 | ( 9/10) Accurately ripped
24 | ( 9/10) Accurately ripped
25 | ( 9/10) Accurately ripped
26 | ( 9/10) Accurately ripped
27 | ( 9/10) Accurately ripped
28 | ( 9/10) Accurately ripped
29 | ( 9/10) Accurately ripped


==== Log checksum 1FB9BF768107A6DB3E14D85CF6F2D7F5200D8B0A96550ABF2E465C6DAC6E0FF4 ====


Exact Audio Copy V1.3 from 2. September 2016

EAC extraction logfile from 9. August 2018, 8:28

Alan Curtis / Vivaldi: Il Giustino (Disc 2)

Used drive : TSSTcorpDVDWBD SE-406AB Adapter: 1 ID: 2

Read mode : Secure
Utilize accurate stream : Yes
Defeat audio cache : Yes
Make use of C2 pointers : No

Read offset correction : 6
Overread into Lead-In and Lead-Out : No
Fill up missing offset samples with silence : Yes
Delete leading and trailing silent blocks : No
Null samples used in CRC calculations : Yes
Used interface : Native Win32 interface for Win NT & 2000

Used output format : User Defined Encoder
Selected bitrate : 1024 kBit/s
Quality : High
Add ID3 tag : No
Command line compressor : C:\Program Files (x86)\Exact Audio Copy\FLAC\FLAC.EXE
Additional command line options : -8 -e -p -V -T "ARTIST=%artist%" -T "TITLE=%title%" -T "ALBUM=%albumtitle%" -T "DATE=%year%" -T "TRACKNUMBER=%tracknr%" -T "GENRE=%genre%" -T "PERFORMER=%albuminterpret%" -T "COMPOSER=%composer%" %haslyrics%–tag-from-file=LYRICS="%lyricsfile%"%haslyrics% -T "ALBUMARTIST=%albumartist%" -T "DISCNUMBER=%cdnumber%" -T "TOTALDISCS=%totalcds%" -T "TOTALTRACKS=%numtracks%" -T "COMMENT=%comment%" %source% -o %dest%


TOC of the extracted CD

Track | Start | Length | Start sector | End sector
––––––––––––––––––––––––––––-
1 | 0:00.34 | 0:57.59 | 34 | 4367
2 | 0:58.18 | 4:01.21 | 4368 | 22463
3 | 4:59.39 | 3:05.68 | 22464 | 36406
4 | 8:05.32 | 1:06.50 | 36407 | 41406
5 | 9:12.07 | 0:22.70 | 41407 | 43126
6 | 9:35.02 | 4:07.27 | 43127 | 61678
7 | 13:42.29 | 0:58.70 | 61679 | 66098
8 | 14:41.24 | 2:52.53 | 66099 | 79051
9 | 17:34.02 | 0:31.14 | 79052 | 81390
10 | 18:05.16 | 3:51.43 | 81391 | 98758
11 | 21:56.59 | 0:52.32 | 98759 | 102690
12 | 22:49.16 | 2:06.42 | 102691 | 112182
13 | 24:55.58 | 0:47.02 | 112183 | 115709
14 | 25:42.60 | 1:24.38 | 115710 | 122047
15 | 27:07.23 | 3:31.54 | 122048 | 137926
16 | 30:39.02 | 1:19.02 | 137927 | 143853
17 | 31:58.04 | 3:16.54 | 143854 | 158607
18 | 35:14.58 | 1:40.42 | 158608 | 166149
19 | 36:55.25 | 3:32.25 | 166150 | 182074
20 | 40:27.50 | 0:47.07 | 182075 | 185606
21 | 41:14.57 | 2:03.35 | 185607 | 194866
22 | 43:18.17 | 0:40.12 | 194867 | 197878
23 | 43:58.29 | 6:01.42 | 197879 | 224995
24 | 49:59.71 | 0:33.72 | 224996 | 227542
25 | 50:33.68 | 4:14.52 | 227543 | 246644
26 | 54:48.45 | 0:39.57 | 246645 | 249626
27 | 55:28.27 | 4:04.52 | 249627 | 267978
28 | 59:33.04 | 3:03.67 | 267979 | 281770
29 | 62:36.71 | 5:35.11 | 281771 | 306906
30 | 68:12.07 | 2:49.40 | 306907 | 319621
31 | 71:01.47 | 3:37.30 | 319622 | 335926
32 | 74:39.02 | 2:53.69 | 335927 | 348970
33 | 77:32.71 | 0:32.21 | 348971 | 351391
34 | 78:05.17 | 1:25.26 | 351392 | 357792


Range status and errors

Selected range

Filename K:\Rips\Vivaldi - Il Giustino - Curtis\CD2\Alan Curtis - Vivaldi- Il Giustino (Disc 2).wav

Peak level 96.6 %
Extraction speed 1.8 X
Range quality 99.9 %
Test CRC 0DE1CCD7
Copy CRC 7D31D7E6
Copy OK

No errors occurred


AccurateRip summary

Track 1 accurately ripped (confidence 12) [D24382DC] (AR v2)
Track 2 cannot be verified as accurate (confidence 12) [8618C957], AccurateRip returned [B15AD1CE] (AR v2)
Track 3 accurately ripped (confidence 12) [E779AE49] (AR v2)
Track 4 accurately ripped (confidence 12) [C87CED3A] (AR v2)
Track 5 accurately ripped (confidence 12) [16D1C249] (AR v2)
Track 6 accurately ripped (confidence 12) [BD170B01] (AR v2)
Track 7 accurately ripped (confidence 12) [A5105B92] (AR v2)
Track 8 accurately ripped (confidence 12) [1DC2E52C] (AR v2)
Track 9 accurately ripped (confidence 12) [9D47BB7E] (AR v2)
Track 10 accurately ripped (confidence 12) [8B254702] (AR v2)
Track 11 accurately ripped (confidence 12) [1A6DC689] (AR v2)
Track 12 accurately ripped (confidence 12) [4B011221] (AR v2)
Track 13 accurately ripped (confidence 12) [B81F8174] (AR v2)
Track 14 accurately ripped (confidence 12) [A7F18E93] (AR v2)
Track 15 accurately ripped (confidence 12) [4898831E] (AR v2)
Track 16 accurately ripped (confidence 12) [1E491E9E] (AR v2)
Track 17 accurately ripped (confidence 12) [E3A7ADBA] (AR v2)
Track 18 accurately ripped (confidence 12) [2198B5F9] (AR v2)
Track 19 accurately ripped (confidence 12) [A98D0EBB] (AR v2)
Track 20 accurately ripped (confidence 12) [0581312B] (AR v2)
Track 21 accurately ripped (confidence 12) [CBEA80FC] (AR v2)
Track 22 accurately ripped (confidence 12) [6585DB4E] (AR v2)
Track 23 accurately ripped (confidence 12) [04E50F43] (AR v2)
Track 24 accurately ripped (confidence 12) [27EB325A] (AR v2)
Track 25 accurately ripped (confidence 12) [E3414040] (AR v2)
Track 26 accurately ripped (confidence 12) [D9E2DA19] (AR v2)
Track 27 accurately ripped (confidence 12) [FF3EF358] (AR v2)
Track 28 accurately ripped (confidence 12) [1A43B3C9] (AR v2)
Track 29 accurately ripped (confidence 12) [47FDC99D] (AR v2)
Track 30 accurately ripped (confidence 12) [B3F77345] (AR v2)
Track 31 accurately ripped (confidence 12) [2967CE8F] (AR v2)
Track 32 accurately ripped (confidence 12) [03C08C99] (AR v2)
Track 33 accurately ripped (confidence 12) [4E38C920] (AR v2)
Track 34 accurately ripped (confidence 12) [4A52B02E] (AR v2)

33 track(s) accurately ripped
1 track(s) could not be verified as accurate

Some tracks could not be verified as accurate

End of status report

–– CUETools DB Plugin V2.1.6

[CTDB TOCID: l2DoA1cz1cz4ZCc9yF.RsjMtD7s-] found
Submit result: insufficient quality
Track | CTDB Status
1 | (10/10) Accurately ripped
2 | ( 9/10) Differs in 27 samples @00:29:14
3 | (10/10) Accurately ripped
4 | (10/10) Accurately ripped
5 | (10/10) Accurately ripped
6 | (10/10) Accurately ripped
7 | (10/10) Accurately ripped
8 | (10/10) Accurately ripped
9 | (10/10) Accurately ripped
10 | (10/10) Accurately ripped
11 | (10/10) Accurately ripped
12 | (10/10) Accurately ripped
13 | (10/10) Accurately ripped
14 | ( 9/10) Accurately ripped
15 | (10/10) Accurately ripped
16 | (10/10) Accurately ripped
17 | (10/10) Accurately ripped
18 | (10/10) Accurately ripped
19 | (10/10) Accurately ripped
20 | (10/10) Accurately ripped
21 | (10/10) Accurately ripped
22 | (10/10) Accurately ripped
23 | (10/10) Accurately ripped
24 | (10/10) Accurately ripped
25 | (10/10) Accurately ripped
26 | (10/10) Accurately ripped
27 | (10/10) Accurately ripped
28 | (10/10) Accurately ripped
29 | (10/10) Accurately ripped
30 | (10/10) Accurately ripped
31 | (10/10) Accurately ripped
32 | (10/10) Accurately ripped
33 | (10/10) Accurately ripped
34 | (10/10) Accurately ripped
If you are sure that your rip contains errors, you can use CUETools to repair it.


==== Log checksum D91043A1DB49553DA2A748C5108C87891F671D4A39869A33B5978B2E87B9B06C ====

Alan Curtis, Il Complesso Barocco - Vivaldi: Il Giustino (2002)

Thanks to the original releaser