Subcategories
Tags
Language
Tags

Accademia I Filarmonici, Alberto Martini - Veracini: Complete Overtures and Concertos, Vol. 1 (1995)

Posted By: tirexiss
Accademia I Filarmonici, Alberto Martini - Veracini: Complete Overtures and Concertos, Vol. 1 (1995)

Accademia I Filarmonici, Alberto Martini - Veracini: Complete Overtures and Concertos, Vol. 1 (1995)
EAC | FLAC (image+.cue, log) | Covers Included | 72:16 | 387 MB
Genre: Classical | Label: Naxos | Catalog: 8.553412

Here one finds an historically informed and wholly satisfying approach that has spring in its step in the exuberant allegros and beguiling grace and tenderness in the slow movements. Again, Naxos has mounted a formidable challenge to the full-price competition with a well-recorded release that is a steal at the price.

Accademia I Filarmonici, Alberto Martini - Veracini: Complete Overtures and Concertos, Vol. 1 (1995)

Track List:

Overture No. 1 In B Flat Major
1. Largo - Allegro - Largo - Allegro 3:38
2. Gavotte (Allegro) 1:40
3. Menuett 3:04
4. Sarabande 3:16
5. Aire: Allegro 2:05
Overture No. 2 In F Major
6. Largo - Allegro - Largo - Allegro 3:48
7. Gavotte 5:10
8. Sarabande 2:58
9. Menuett 4:28
10. Gigue 3:48
11. Menuett 1:53
Overture No. 3 In B Flat Major
12. Largo - Allegro 3:07
13. Aire (Allegro) 3:42
14. Allegro 2:18
15. Sarabande 1:24
16. Gigue 2:02
Overture No. 4 In F Major
17. Largo - Allegro 3:51
18. Gavotte (Allegro) 1:06
19. Appoggiato 4:06
20. Gavotte & Rondeau: Allegro 1:37
21. Gigue 2:02
Overture No. 6 In B Flat Major
22. Allegro 3:40
23. Largo 2:07
24. Allegro 2:43
25. Menuett 1:40

Performers:
Accademia i Filarmonici
Alberto Martini, conductor

Exact Audio Copy V1.0 beta 3 from 29. August 2011

EAC extraction logfile from 4. March 2014, 19:38

Alberto Martini / Veracini - Complete Overtures and Concertos - Alberto Martini (Vol.1)

Used drive : TSSTcorpCDDVDW SH-222BB Adapter: 2 ID: 1

Read mode : Secure
Utilize accurate stream : Yes
Defeat audio cache : Yes
Make use of C2 pointers : No

Read offset correction : 6
Overread into Lead-In and Lead-Out : No
Fill up missing offset samples with silence : Yes
Delete leading and trailing silent blocks : No
Null samples used in CRC calculations : Yes
Used interface : Native Win32 interface for Win NT & 2000

Used output format : User Defined Encoder
Selected bitrate : 896 kBit/s
Quality : High
Add ID3 tag : No
Command line compressor : C:\Program Files\Exact Audio Copy\FLAC\FLAC.EXE
Additional command line options : -8 -V -T "TITLE=%title%" -T "ARTIST=%artist%" -T "ALBUMARTIST=%albumartist%" -T "ALBUM=%albumtitle%" -T "DATE=%year%" -T "TRACKNUMBER=%tracknr%" -T "TRACKTOTAL=%numtracks%" -T "GENRE=%genre%" -T "COMMENT=%comment%" -T "PERFORMER=%albuminterpret%" -T "COMPOSER=%composer%" %source% -o %dest%


TOC of the extracted CD

Track | Start | Length | Start sector | End sector
––––––––––––––––––––––––––––-
1 | 0:00.00 | 3:41.30 | 0 | 16604
2 | 3:41.30 | 1:42.45 | 16605 | 24299
3 | 5:24.00 | 3:06.05 | 24300 | 38254
4 | 8:30.05 | 3:18.37 | 38255 | 53141
5 | 11:48.42 | 2:10.10 | 53142 | 62901
6 | 13:58.52 | 3:49.73 | 62902 | 80149
7 | 17:48.50 | 5:12.07 | 80150 | 103556
8 | 23:00.57 | 2:59.65 | 103557 | 117046
9 | 26:00.47 | 4:30.13 | 117047 | 137309
10 | 30:30.60 | 3:50.10 | 137310 | 154569
11 | 34:20.70 | 1:57.27 | 154570 | 163371
12 | 36:18.22 | 3:08.28 | 163372 | 177499
13 | 39:26.50 | 3:44.27 | 177500 | 194326
14 | 43:11.02 | 2:19.73 | 194327 | 204824
15 | 45:31.00 | 1:26.07 | 204825 | 211281
16 | 46:57.07 | 2:05.70 | 211282 | 220726
17 | 49:03.02 | 3:53.38 | 220727 | 238239
18 | 52:56.40 | 1:08.62 | 238240 | 243401
19 | 54:05.27 | 4:08.18 | 243402 | 262019
20 | 58:13.45 | 1:39.60 | 262020 | 269504
21 | 59:53.30 | 2:06.35 | 269505 | 278989
22 | 61:59.65 | 3:41.72 | 278990 | 295636
23 | 65:41.62 | 2:09.48 | 295637 | 305359
24 | 67:51.35 | 2:45.52 | 305360 | 317786
25 | 70:37.12 | 1:39.58 | 317787 | 325269


Range status and errors

Selected range

Filename E:\3000\[3219] Veracini – Complete Overtures and Concertos – Alberto Martini (Vol.1)\Veracini - Complete Overtures and Concertos - Alberto Martini (Vol.1).wav

Peak level 87.2 %
Extraction speed 7.0 X
Range quality 99.9 %
Test CRC 6FFDB19D
Copy CRC 6FFDB19D
Copy OK

No errors occurred


AccurateRip summary

Track 1 accurately ripped (confidence 2) [AEC3D9BE] (AR v2)
Track 2 accurately ripped (confidence 2) [185A04CA] (AR v2)
Track 3 accurately ripped (confidence 2) [D17D13D8] (AR v2)
Track 4 accurately ripped (confidence 2) [6A7B1646] (AR v2)
Track 5 accurately ripped (confidence 2) [2382A049] (AR v2)
Track 6 accurately ripped (confidence 2) [FF4BFB47] (AR v2)
Track 7 accurately ripped (confidence 2) [3D9266BE] (AR v2)
Track 8 accurately ripped (confidence 2) [25D4351F] (AR v2)
Track 9 accurately ripped (confidence 2) [F95AB471] (AR v2)
Track 10 accurately ripped (confidence 2) [A2450C92] (AR v2)
Track 11 accurately ripped (confidence 2) [1E9E2B30] (AR v2)
Track 12 accurately ripped (confidence 2) [99894F97] (AR v2)
Track 13 accurately ripped (confidence 2) [E4A0F05D] (AR v2)
Track 14 accurately ripped (confidence 2) [0A10F4CD] (AR v2)
Track 15 accurately ripped (confidence 2) [F0858CE6] (AR v2)
Track 16 accurately ripped (confidence 2) [BDF76F15] (AR v2)
Track 17 accurately ripped (confidence 2) [BFF2D621] (AR v2)
Track 18 accurately ripped (confidence 2) [FA877769] (AR v2)
Track 19 accurately ripped (confidence 2) [03E877E8] (AR v2)
Track 20 accurately ripped (confidence 2) [881C9DC9] (AR v2)
Track 21 accurately ripped (confidence 2) [6AAB9DD2] (AR v2)
Track 22 accurately ripped (confidence 2) [81ED31A1] (AR v2)
Track 23 accurately ripped (confidence 2) [DC51E182] (AR v2)
Track 24 accurately ripped (confidence 2) [532FD40A] (AR v2)
Track 25 accurately ripped (confidence 2) [578649BB] (AR v2)

All tracks accurately ripped

End of status report

==== Log checksum 879F5375CA1FCB9BFEECD5BFEF15039C0656DAF062FC49E2D06186CC580EDEE6 ====

Thanks to the Original ripper (unknown)!

Welcome to my blog!

Download: