Tags
Language
Tags

Alexandra Shakina - 2 Studio Albums (2018-2019)

Posted By: gribovar
Alexandra Shakina - 2 Studio Albums (2018-2019)

Alexandra Shakina - 2 Studio Albums (2018-2019)
EAC Rip | FLAC (image+.cue+log) - 712 MB | MP3 CBR 320 kbps (LAME 3.93) - 269 MB | Covers - 65 MB
Genre: Vocal Jazz | RAR 3% Rec. | Label: Venus Records

All The Way (2018). The debut album from Russian vocalist Alexandra Shakina, performing standards with backing from the Massimo Farao' Trio.
Mood Indigo (2019). Alexandra Shakina's second release for Japanese Venus label. Backed by Massimo Farao' on piano, Nicola Barbon on bass and Gianni Cazzola on drums, sings "Isn't It Romantic?", "Let's Face The Music And Dance", "Mood Indigo", "I'm A Fool To Want You", and more.

Alexandra Shakina - 2 Studio Albums (2018-2019)

Alexandra Shakina - All The Way (2018)
EAC Rip | FLAC (image+.cue+log) - 342 MB | MP3 CBR 320 kbps (LAME 3.93) - 125 MB | Covers - 32 MB
Genre: Vocal Jazz | RAR 3% Rec. | Label: Venus Records (VHCD-78331), 2020

Tracklist:
01. All The Way
02. Let Me Love You
03. Get Out Of Town
04. Dedicated To You
05. I Concentrate On You
06. Weaver Of Dreams
07. I'm Just Lucky So And So
08. That Old Black Magic
09. Come Fly With Me
10. Where Or When

Total time: 53:17

Exact Audio Copy V1.3 from 2. September 2016

Отчёт EAC об извлечении, выполненном 26. ноября 2021, 17:47

Alexandra Shakina / All The Way

Дисковод: PLEXTOR DVDR PX-755A Adapter: 1 ID: 0

Режим чтения : Достоверность
Использование точного потока : Да
Отключение кэша аудио : Да
Использование указателей C2 : Нет

Коррекция смещения при чтении : 30
Способность читать области Lead-in и Lead-out : Нет
Заполнение пропущенных сэмплов тишиной : Да
Удаление блоков с тишиной в начале и конце : Нет
При вычислениях CRC использовались нулевые сэмплы : Да
Интерфейс : Встроенный Win32-интерфейс для Win NT/2000

Выходной формат : Пользовательский кодировщик
Выбранный битрейт : 128 kBit/s
Качество : Высокий
Добавление ID3-тега : Нет
Утилита сжатия : C:\Program Files (x86)\Exact Audio Copy\Flac\flac.exe
Дополнительные параметры : -V -8 -T "Date=%year%" -T "Genre=%genre%" %source%


TOC извлечённого CD

Трек | Старт | Длительность | Начальный сектор | Конечный сектор
––––––––––––––––––––––––––––––––––-
1 | 0:00.00 | 6:05.58 | 0 | 27432
2 | 6:05.58 | 5:23.38 | 27433 | 51695
3 | 11:29.21 | 5:06.36 | 51696 | 74681
4 | 16:35.57 | 4:37.72 | 74682 | 95528
5 | 21:13.54 | 4:47.70 | 95529 | 117123
6 | 26:01.49 | 5:11.21 | 117124 | 140469
7 | 31:12.70 | 6:18.34 | 140470 | 168853
8 | 37:31.29 | 4:22.08 | 168854 | 188511
9 | 41:53.37 | 6:40.46 | 188512 | 218557
10 | 48:34.08 | 4:42.45 | 218558 | 239752


Характеристики диапазона извлечения и сообщения об ошибках

Выбранный диапазон

Имя файла D:\РАЗДАЧА\Alexandra Shakina - All The Way - 2020 [Japan]\Alexandra Shakina - All The Way.wav

Пиковый уровень 100.0 %
Скорость извлечения 2.5 X
Качество диапазона 100.0 %
CRC теста B7CBDE85
CRC копии B7CBDE85
Копирование… OK

Ошибок не произошло


AccurateRip: сводка

Трек 1 : извлечено точно (доверие 3) [8B317FF2] (AR v2)
Трек 2 : извлечено точно (доверие 3) [530B1694] (AR v2)
Трек 3 : извлечено точно (доверие 3) [9EF4C8EA] (AR v2)
Трек 4 : извлечено точно (доверие 3) [26B205B7] (AR v2)
Трек 5 : извлечено точно (доверие 3) [3EF1E8A8] (AR v2)
Трек 6 : извлечено точно (доверие 3) [54D34EF0] (AR v2)
Трек 7 : извлечено точно (доверие 3) [40FD2617] (AR v2)
Трек 8 : извлечено точно (доверие 3) [88EC9E48] (AR v2)
Трек 9 : извлечено точно (доверие 3) [ECDA8AE8] (AR v2)
Трек 10 : извлечено точно (доверие 3) [C114377B] (AR v2)

Все треки извлечены точно

Конец отчёта

–– CUETools DB Plugin V2.1.6

[CTDB TOCID: zq1mPV0oMGLhUCBeeDuOI.yZdnc-] found
Submit result: zq1mPV0oMGLhUCBeeDuOI.yZdnc- has been confirmed
Track | CTDB Status
1 | (30/30) Accurately ripped
2 | (30/30) Accurately ripped
3 | (30/30) Accurately ripped
4 | (30/30) Accurately ripped
5 | (30/30) Accurately ripped
6 | (30/30) Accurately ripped
7 | (30/30) Accurately ripped
8 | (30/30) Accurately ripped
9 | (30/30) Accurately ripped
10 | (27/30) Accurately ripped


==== Контрольная сумма отчёта 83BCCF92512054D5C62E6FBB888FEEF636335C891080529655ACCC9CEFEE696D ====

[CUETools log; Date: 27.11.2021 15:35:31; Version: 2.1.4]
[CTDB TOCID: zq1mPV0oMGLhUCBeeDuOI.yZdnc-] found.
Track | CTDB Status
1 | (31/31) Accurately ripped
2 | (31/31) Accurately ripped
3 | (31/31) Accurately ripped
4 | (31/31) Accurately ripped
5 | (31/31) Accurately ripped
6 | (31/31) Accurately ripped
7 | (31/31) Accurately ripped
8 | (31/31) Accurately ripped
9 | (31/31) Accurately ripped
10 | (28/31) Accurately ripped
[AccurateRip ID: 00142e73-00a0de49-980c7c0a] found.
Track [ CRC | V2 ] Status
01 [dde2ef78|8b317ff2] (0+3/3) Accurately ripped
02 [180a81ed|530b1694] (0+3/3) Accurately ripped
03 [1b04a22c|9ef4c8ea] (0+3/3) Accurately ripped
04 [7a8d99b9|26b205b7] (0+3/3) Accurately ripped
05 [bd5aef6c|3ef1e8a8] (0+3/3) Accurately ripped
06 [b2239ed7|54d34ef0] (0+3/3) Accurately ripped
07 [2d6022f7|40fd2617] (0+3/3) Accurately ripped
08 [ed3e4786|88ec9e48] (0+3/3) Accurately ripped
09 [464d1917|ecda8ae8] (0+3/3) Accurately ripped
10 [207b01b6|c114377b] (0+3/3) Accurately ripped

Track Peak [ CRC32 ] [W/O NULL] [ LOG ]
– 100,0 [B7CBDE85] [ABD4C056] CRC32
01 96,9 [A95736C6] [09BEC4C0]
02 100,0 [45CA1956] [0E9CA668]
03 99,9 [389D02B7] [2A684531]
04 97,8 [7B22D116] [1882E9F9]
05 98,1 [3FE41B58] [C174A34B]
06 99,4 [B27385AF] [83E1F9EF]
07 99,9 [2B9B4FFB] [63CDF25B]
08 100,0 [2063CEB4] [CC92FBBD]
09 100,0 [D719D50C] [FA12700C]
10 97,7 [7A8448DD] [1E625E35]

Alexandra Shakina - 2 Studio Albums (2018-2019)

Alexandra Shakina - Mood Indigo (2019)
EAC Rip | FLAC (image+.cue+log) - 370 MB | MP3 CBR 320 kbps (LAME 3.93) - 144 MB | Covers - 33 MB
Genre: Vocal Jazz | RAR 3% Rec. | Label: Venus Records (VHCD-78346), 2020

Tracklist:
01. Estate
02. I Could Have Told You
03. Isn't It Romantic?
04. Let's Face The Music And Dance
05. Love You Madly
06. Mood Indigo
07. Only Trust Your Heart
08. A Sleepin Bee
09. Take Love Easy
10. You Are The Top
11. Comes Love
12. I'm A Fool To Want You
13. I Thought About You

Total time: 01:01:22

Exact Audio Copy V1.3 from 2. September 2016

Отчёт EAC об извлечении, выполненном 26. ноября 2021, 16:57

Alexandra Shakina / Mood Indigo

Дисковод: PLEXTOR DVDR PX-755A Adapter: 1 ID: 0

Режим чтения : Достоверность
Использование точного потока : Да
Отключение кэша аудио : Да
Использование указателей C2 : Нет

Коррекция смещения при чтении : 30
Способность читать области Lead-in и Lead-out : Нет
Заполнение пропущенных сэмплов тишиной : Да
Удаление блоков с тишиной в начале и конце : Нет
При вычислениях CRC использовались нулевые сэмплы : Да
Интерфейс : Встроенный Win32-интерфейс для Win NT/2000

Выходной формат : Пользовательский кодировщик
Выбранный битрейт : 128 kBit/s
Качество : Высокий
Добавление ID3-тега : Нет
Утилита сжатия : C:\Program Files (x86)\Exact Audio Copy\Flac\flac.exe
Дополнительные параметры : -V -8 -T "Date=%year%" -T "Genre=%genre%" %source%


TOC извлечённого CD

Трек | Старт | Длительность | Начальный сектор | Конечный сектор
––––––––––––––––––––––––––––––––––-
1 | 0:00.00 | 5:43.35 | 0 | 25759
2 | 5:43.35 | 5:35.70 | 25760 | 50954
3 | 11:19.30 | 6:28.04 | 50955 | 80058
4 | 17:47.34 | 4:09.71 | 80059 | 98804
5 | 21:57.30 | 3:12.43 | 98805 | 113247
6 | 25:09.73 | 5:23.24 | 113248 | 137496
7 | 30:33.22 | 3:41.07 | 137497 | 154078
8 | 34:14.29 | 5:06.15 | 154079 | 177043
9 | 39:20.44 | 3:59.37 | 177044 | 195005
10 | 43:20.06 | 3:01.06 | 195006 | 208586
11 | 46:21.12 | 4:02.66 | 208587 | 226802
12 | 50:24.03 | 5:38.45 | 226803 | 252197
13 | 56:02.48 | 5:19.63 | 252198 | 276185


Характеристики диапазона извлечения и сообщения об ошибках

Выбранный диапазон

Имя файла D:\РАЗДАЧА\Alexandra Shakina - Mood Indigo - 2021 [Japan]\Alexandra Shakina - Mood Indigo.wav

Пиковый уровень 100.0 %
Скорость извлечения 2.5 X
Качество диапазона 100.0 %
CRC теста E57F1099
CRC копии E57F1099
Копирование… OK

Ошибок не произошло


AccurateRip: сводка

Трек 1 : извлечено точно (доверие 4) [95F37664] (AR v2)
Трек 2 : извлечено точно (доверие 4) [88F86712] (AR v2)
Трек 3 : извлечено точно (доверие 4) [5F2ED57B] (AR v2)
Трек 4 : извлечено точно (доверие 4) [C1123B25] (AR v2)
Трек 5 : извлечено точно (доверие 4) [3164D060] (AR v2)
Трек 6 : извлечено точно (доверие 4) [8EFF129A] (AR v2)
Трек 7 : извлечено точно (доверие 4) [3151A9CB] (AR v2)
Трек 8 : извлечено точно (доверие 4) [FA9156CF] (AR v2)
Трек 9 : извлечено точно (доверие 4) [54647D26] (AR v2)
Трек 10 : извлечено точно (доверие 4) [0C0AE610] (AR v2)
Трек 11 : извлечено точно (доверие 4) [60B7901A] (AR v2)
Трек 12 : извлечено точно (доверие 4) [46897296] (AR v2)
Трек 13 : извлечено точно (доверие 4) [E274C517] (AR v2)

Все треки извлечены точно

Конец отчёта

–– CUETools DB Plugin V2.1.6

[CTDB TOCID: wNiSPWULvLc_W4LALKsCqzGVh1E-] found
Submit result: wNiSPWULvLc_W4LALKsCqzGVh1E- has been confirmed
Track | CTDB Status
1 | (20/20) Accurately ripped
2 | (20/20) Accurately ripped
3 | (20/20) Accurately ripped
4 | (20/20) Accurately ripped
5 | (20/20) Accurately ripped
6 | (20/20) Accurately ripped
7 | (20/20) Accurately ripped
8 | (20/20) Accurately ripped
9 | (20/20) Accurately ripped
10 | (20/20) Accurately ripped
11 | (20/20) Accurately ripped
12 | (20/20) Accurately ripped
13 | (16/20) Accurately ripped


==== Контрольная сумма отчёта 110D7765BBAE3014DF4DBD76EE098EF3BC9138D61BD45D302D20F2068ABB1388 ====

[CUETools log; Date: 27.11.2021 15:53:16; Version: 2.1.4]
[CTDB TOCID: wNiSPWULvLc_W4LALKsCqzGVh1E-] found.
Track | CTDB Status
1 | (21/21) Accurately ripped
2 | (21/21) Accurately ripped
3 | (21/21) Accurately ripped
4 | (21/21) Accurately ripped
5 | (21/21) Accurately ripped
6 | (21/21) Accurately ripped
7 | (21/21) Accurately ripped
8 | (21/21) Accurately ripped
9 | (21/21) Accurately ripped
10 | (21/21) Accurately ripped
11 | (21/21) Accurately ripped
12 | (21/21) Accurately ripped
13 | (17/21) Accurately ripped
[AccurateRip ID: 001e75c3-012b0a95-a70e620d] found.
Track [ CRC | V2 ] Status
01 [39982ae6|95f37664] (0+4/4) Accurately ripped
02 [cf88ad02|88f86712] (0+4/4) Accurately ripped
03 [c987463a|5f2ed57b] (0+4/4) Accurately ripped
04 [60bdf734|c1123b25] (0+4/4) Accurately ripped
05 [36263751|3164d060] (0+4/4) Accurately ripped
06 [e21ee209|8eff129a] (0+4/4) Accurately ripped
07 [a3d9316c|3151a9cb] (0+4/4) Accurately ripped
08 [5a8e13f8|fa9156cf] (0+4/4) Accurately ripped
09 [698d00ac|54647d26] (0+4/4) Accurately ripped
10 [e7b2d13b|0c0ae610] (0+4/4) Accurately ripped
11 [c47429e6|60b7901a] (0+4/4) Accurately ripped
12 [3c568dd3|46897296] (0+4/4) Accurately ripped
13 [2a382443|e274c517] (0+4/4) Accurately ripped

Track Peak [ CRC32 ] [W/O NULL] [ LOG ]
– 100,0 [E57F1099] [615FB65B] CRC32
01 97,5 [B40EF21D] [2EEF4975]
02 97,4 [99EC97DF] [2056E1EE]
03 96,4 [5832D95E] [25BF07C0]
04 100,0 [C3C6A455] [8DA150F0]
05 100,0 [C10056A4] [E0D14DB8]
06 100,0 [BA3130DC] [CC5EE781]
07 100,0 [6627C1F7] [8358B3A9]
08 100,0 [B0C8A326] [DDC46931]
09 97,7 [FF680FC8] [9FECB337]
10 100,0 [1B3D122C] [1FA5FF04]
11 95,9 [7F665756] [3791C17F]
12 95,8 [E13CFB20] [1E3A2624]
13 95,8 [46D7477A] [F10C2B68]

Thanks to pishin