Subcategories

Alexandre Tharaud - Thierry Pécou: L'Oiseau Innumérable (2008)

Posted By: tirexiss
Alexandre Tharaud - Thierry Pécou: L'Oiseau Innumérable (2008)

Alexandre Tharaud - Thierry Pécou: L'Oiseau Innumérable (2008)
EAC | FLAC (image+.cue, log) | Covers Included | 01:03:52 | 257 MB
Genre: Classical | Label: Harmonia Mundi | Catalog: HMC 901974

For Thierry Pécou, to live is to travel, and to travel is to write, as if to compose were at once to plunge into another universe, to take affective possession of the space, and, above all, to stand back and choose to live in the margins of one's everyday cultural milieu. The works presented on this CD bear witness to a constantly renewed artistic standpoint; they have been entrusted here to the expert fingers of another great traveller.

Alexandre Tharaud - Thierry Pécou: L'Oiseau Innumérable (2008)

Track List:

01. L'oiseau innumérable - 001 Premier Mvt [0:07:39.16]
02. L'oiseau innumérable - 002 Deuxieme Mvt [0:03:37.64]
03. L'oiseau innumérable - 003 Troisieme Mvt [0:05:23.48]
04. L'oiseau innumérable - 004 Quatrieme Mvt [0:03:36.12]
05. Outre-mémoire, variances - 001 Mvt 1 [0:00:31.48]
06. Outre-mémoire, variances - 002 Mvt 2 [0:03:18.34]
07. Outre-mémoire, variances - 003 Mvt 3 [0:08:16.69]
08. Outre-mémoire, variances - 004 Mvt 4 [0:01:45.31]
09. Outre-mémoire, variances - 005 Mvt 5 [0:04:34.11]
10. Outre-mémoire, variances - 006 Mvt 6 [0:00:47.67]
11. Outre-mémoire, variances - 007 Mvt 7 [0:05:18.10]
12. Petit Livre pour clavier - 001 Ricercare 1 [0:01:44.01]
13. Petit Livre pour clavier - 002 Volutes [0:02:07.32]
14. Petit Livre pour clavier - 003 Coucous [0:02:24.69]
15. Petit Livre pour clavier - 004 Ricercare 2 [0:02:55.22]
16. Petit Livre pour clavier - 005 Ondes [0:03:02.02]
17. Après Rameau, une sarabande ? (2001) [0:03:51.30]
18. Jean-Philippe Raneau - Sarabande [0:03:05.18]

Performers:
Alexandre Tharaud - piano, harpsichord, organ
Ensemble Orchestral de Paris
Andrea Quinn - conductor

Exact Audio Copy V1.0 beta 3 from 29. August 2011

EAC extraction logfile from 28. March 2014, 22:06

Alexandre Tharaud / Thierry Pécou - L'Oiseau Innumérable - Alexandre Tharaud

Used drive : TSSTcorpCDDVDW SH-222BB Adapter: 2 ID: 1

Read mode : Secure
Utilize accurate stream : Yes
Defeat audio cache : Yes
Make use of C2 pointers : No

Read offset correction : 6
Overread into Lead-In and Lead-Out : No
Fill up missing offset samples with silence : Yes
Delete leading and trailing silent blocks : No
Null samples used in CRC calculations : Yes
Used interface : Native Win32 interface for Win NT & 2000

Used output format : User Defined Encoder
Selected bitrate : 896 kBit/s
Quality : High
Add ID3 tag : No
Command line compressor : C:\Program Files\Exact Audio Copy\FLAC\FLAC.EXE
Additional command line options : -8 -V -T "TITLE=%title%" -T "ARTIST=%artist%" -T "ALBUMARTIST=%albumartist%" -T "ALBUM=%albumtitle%" -T "DATE=%year%" -T "TRACKNUMBER=%tracknr%" -T "TRACKTOTAL=%numtracks%" -T "GENRE=%genre%" -T "COMMENT=%comment%" -T "PERFORMER=%albuminterpret%" -T "COMPOSER=%composer%" %source% -o %dest%


TOC of the extracted CD

Track | Start | Length | Start sector | End sector
––––––––––––––––––––––––––––-
1 | 0:00.00 | 7:39.16 | 0 | 34440
2 | 7:39.16 | 3:37.64 | 34441 | 50779
3 | 11:17.05 | 5:23.48 | 50780 | 75052
4 | 16:40.53 | 3:36.12 | 75053 | 91264
5 | 20:16.65 | 0:31.48 | 91265 | 93637
6 | 20:48.38 | 3:18.34 | 93638 | 108521
7 | 24:06.72 | 8:16.69 | 108522 | 145790
8 | 32:23.66 | 1:45.31 | 145791 | 153696
9 | 34:09.22 | 4:34.11 | 153697 | 174257
10 | 38:43.33 | 0:47.67 | 174258 | 177849
11 | 39:31.25 | 5:18.10 | 177850 | 201709
12 | 44:49.35 | 1:44.01 | 201710 | 209510
13 | 46:33.36 | 2:07.32 | 209511 | 219067
14 | 48:40.68 | 2:24.69 | 219068 | 229936
15 | 51:05.62 | 2:55.22 | 229937 | 243083
16 | 54:01.09 | 3:02.02 | 243084 | 256735
17 | 57:03.11 | 3:51.30 | 256736 | 274090
18 | 60:54.41 | 3:05.18 | 274091 | 287983


Range status and errors

Selected range

Filename G:\Ripped general\[8088] Thierry Pécou – L'Oiseau Innumérable – Alexandre Tharaud\Thierry Pécou - L'Oiseau Innumérable - Alexandre Tharaud.wav

Peak level 98.8 %
Extraction speed 6.8 X
Range quality 100.0 %
Test CRC AA6196EB
Copy CRC AA6196EB
Copy OK

No errors occurred


AccurateRip summary

Track 1 accurately ripped (confidence 6) [E18FBBD6] (AR v2)
Track 2 accurately ripped (confidence 6) [390C5BD0] (AR v2)
Track 3 accurately ripped (confidence 6) [AF84D308] (AR v2)
Track 4 accurately ripped (confidence 6) [615A90DD] (AR v2)
Track 5 accurately ripped (confidence 6) [D7955E05] (AR v2)
Track 6 accurately ripped (confidence 6) [154560A7] (AR v2)
Track 7 accurately ripped (confidence 6) [69CADC03] (AR v2)
Track 8 accurately ripped (confidence 6) [7B995D2F] (AR v2)
Track 9 accurately ripped (confidence 6) [8644CDF0] (AR v2)
Track 10 accurately ripped (confidence 6) [B1EFA857] (AR v2)
Track 11 accurately ripped (confidence 6) [36450A7C] (AR v2)
Track 12 accurately ripped (confidence 6) [A8BF53B3] (AR v2)
Track 13 accurately ripped (confidence 6) [F050E5AE] (AR v2)
Track 14 accurately ripped (confidence 6) [5687094D] (AR v2)
Track 15 accurately ripped (confidence 6) [B4F901EC] (AR v2)
Track 16 accurately ripped (confidence 6) [FDFE52DE] (AR v2)
Track 17 accurately ripped (confidence 6) [E3AF64ED] (AR v2)
Track 18 accurately ripped (confidence 6) [6A944512] (AR v2)

All tracks accurately ripped

End of status report

==== Log checksum 1B09C1EDB425024ECB69BDD011222172DF1E707F35B7BE0BBC7D4D0E432562F4 ====

Thanks to the Original ripper (unknown)!

Welcome to my blog!

Download: