Tags
Language
Tags

Alexandre Bloch, Orchestre National de Lille - Bizet: Les Pecheurs de perles (2018)

Posted By: ArlegZ
Alexandre Bloch, Orchestre National de Lille - Bizet: Les Pecheurs de perles (2018)

Alexandre Bloch, Orchestre National de Lille - Bizet: Les Pêcheurs de perles (2018)
EAC | FLAC | Image (Cue & Log) ~ 464 Mb | Total time: 109:43 | Digital booklet
Classical | Label: Pentatone | # PTC 5186 685 | Recorded: 2017

Les Pêcheurs de Perles is best known for its glorious duet, but Georges Bizet’s opera has much more to offer. This live recording more than ever brings out the brilliance of this oriental story about love, duty and friendship. In the last 150 years, Bizet’s piece has mainly been heard in editions that stray from the composer’s original composition. This album – on the contrary - offers the first recording in history of the 1863 premiere version, reconstructed and published by Bärenreiter in 2015. Les Pêcheurs de perles contains a quintessentially French blend of lyricism, exoticism and drama, and the four soloists (Julie Fuchs as Leïla, Cyrille Dubois as Nadir, Florian Sempey as Zurga and Luc Bertin-Hugault as Nourabad) belong to today’s best performers for this specialist repertoire. Their vocal excellence is matched by the choral contributions of Les Cris de Paris. The rich sound palette of Les Pêcheurs is fully brought to life by the inspired playing of the Orchestre National de Lille under the baton of its new Music Director Alexandre Bloch.

Performer:
Leïla - Julie Fuchs
Nadir - Cyrille Dubois
Zurga - Florian Sempey
Nourabad - Luc Bertin-Hugault
Les Cris de Paris
Orchestre National de Lille
Conductor - Alexandre Bloch

Track List:
CD1:
01. Prélude
Acte 1
02. Chœur : Sur la grève en feu où dort le flot bleu
03. Scène et Chœur : Amis, interrompez vos danses et vos jeux !
04. Récit et Reprise du Chœur dansé : Demeure parmi nous, Nadir !
05. Récit et Duo : C’est toi qu’enfin je revois !
06. Duo : Au fond du temple saint
07. Récit, Chœur et Scène : Que vois-je ?
08. Sois la bienvenu
09. Scène et Chœur : Seule au milieu de nous
10. Récit : À cette voix quel trouble agitait tout mon être ?
11. Romance : Je crois entendre encore
12. Final : Scène et Chœur : Le ciel est bleu !
13. Final : Air et Chœur : Ô dieu Brahma !
CD2:
Acte 2
01. Entr'acte, Chœur et Scène : L’ombre descend des cieux !
02. Récitatif et Cavatine : Me voilà seule dans la nuit
03. Chanson : De mon amie, fleur endormie
04. Duo : Leïla ! Leïla !
05. Final : Ah! Revenez à la raison
Act 3
06. Entr'acte, Récit et Air : L’orage s’est calmé
07. Récit : Qu’ai-je vu?
08. Duo : Je frémis, je chancelle
09. Scène : Entends au loin ce bruit de fête !
10. Chœur et danse : Dès que le soleil dans le ciel vermeil
11. Scène : Sombres divinités
12. Duo : Ô lumière sainte, ô divine étreinte
13. Final : Le jour enfin perce la nue !


Exact Audio Copy V1.3 from 2. September 2016

EAC extraction logfile from 5. November 2018, 21:25

Les Cris de Paris, Orchestre National de Lille, Alexandre Bloch / Bizet - Les pêcheurs de perles - CD1

Used drive : PLDS DVD-RW DU8A6SH Adapter: 1 ID: 0

Read mode : Secure
Utilize accurate stream : Yes
Defeat audio cache : Yes
Make use of C2 pointers : No

Read offset correction : 6
Overread into Lead-In and Lead-Out : No
Fill up missing offset samples with silence : Yes
Delete leading and trailing silent blocks : No
Null samples used in CRC calculations : Yes
Used interface : Native Win32 interface for Win NT & 2000

Used output format : User Defined Encoder
Selected bitrate : 128 kBit/s
Quality : High
Add ID3 tag : No
Command line compressor : C:\Program Files (x86)\Exact Audio Copy\Flac\flac.exe
Additional command line options : -V -8 -T "Date=%year%" -T "Genre=%genre%" %source%


TOC of the extracted CD

Track | Start | Length | Start sector | End sector
––––––––––––––––––––––––––––-
1 | 0:00.00 | 2:11.10 | 0 | 9834
2 | 2:11.10 | 3:47.40 | 9835 | 26899
3 | 5:58.50 | 4:02.59 | 26900 | 45108
4 | 10:01.34 | 2:08.21 | 45109 | 54729
5 | 12:09.55 | 2:26.50 | 54730 | 65729
6 | 14:36.30 | 7:27.08 | 65730 | 99262
7 | 22:03.38 | 3:50.19 | 99263 | 116531
8 | 25:53.57 | 2:12.15 | 116532 | 126446
9 | 28:05.72 | 7:25.62 | 126447 | 159883
10 | 35:31.59 | 1:19.42 | 159884 | 165850
11 | 36:51.26 | 3:45.13 | 165851 | 182738
12 | 40:36.39 | 1:56.37 | 182739 | 191475
13 | 42:33.01 | 5:40.22 | 191476 | 216997


Range status and errors

Selected range

Filename C:\temp\Bizet - Les Pecheurs de Perles - 2018\CD1\Bizet - Les pecheurs de perles - CD1.wav

Peak level 78.1 %
Extraction speed 3.5 X
Range quality 100.0 %
Test CRC E7E32729
Copy CRC E7E32729
Copy OK

No errors occurred


AccurateRip summary

Track 1 accurately ripped (confidence 1) [29C9E320] (AR v2)
Track 2 accurately ripped (confidence 1) [7C035208] (AR v2)
Track 3 accurately ripped (confidence 1) [0A5D4205] (AR v2)
Track 4 accurately ripped (confidence 1) [E632D98E] (AR v2)
Track 5 accurately ripped (confidence 1) [4B159F92] (AR v2)
Track 6 accurately ripped (confidence 1) [8C745718] (AR v2)
Track 7 accurately ripped (confidence 1) [B08F7FD6] (AR v2)
Track 8 accurately ripped (confidence 1) [AA3EADE8] (AR v2)
Track 9 accurately ripped (confidence 1) [375A0DB9] (AR v2)
Track 10 accurately ripped (confidence 1) [488ECCC2] (AR v2)
Track 11 accurately ripped (confidence 1) [2C9A5C7E] (AR v2)
Track 12 accurately ripped (confidence 1) [1FD41D7F] (AR v2)
Track 13 accurately ripped (confidence 1) [4234BD10] (AR v2)

All tracks accurately ripped

End of status report

==== Log checksum 9C6CFE0F065EF6966E94F21D180C580DA71A6069939F61EEA2645FC074654CD9 ====


Exact Audio Copy V1.3 from 2. September 2016

EAC extraction logfile from 5. November 2018, 22:00

Les Cris de Paris, Orchestre National de Lille, Alexandre Bloch / Bizet - Les pêcheurs de perles - CD2

Used drive : PLDS DVD-RW DU8A6SH Adapter: 1 ID: 0

Read mode : Secure
Utilize accurate stream : Yes
Defeat audio cache : Yes
Make use of C2 pointers : No

Read offset correction : 6
Overread into Lead-In and Lead-Out : No
Fill up missing offset samples with silence : Yes
Delete leading and trailing silent blocks : No
Null samples used in CRC calculations : Yes
Used interface : Native Win32 interface for Win NT & 2000

Used output format : User Defined Encoder
Selected bitrate : 128 kBit/s
Quality : High
Add ID3 tag : No
Command line compressor : C:\Program Files (x86)\Exact Audio Copy\Flac\flac.exe
Additional command line options : -V -8 -T "Date=%year%" -T "Genre=%genre%" %source%


TOC of the extracted CD

Track | Start | Length | Start sector | End sector
––––––––––––––––––––––––––––-
1 | 0:00.00 | 7:27.39 | 0 | 33563
2 | 7:27.39 | 7:07.68 | 33564 | 65656
3 | 14:35.32 | 2:12.47 | 65657 | 75603
4 | 16:48.04 | 6:46.39 | 75604 | 106092
5 | 23:34.43 | 10:12.64 | 106093 | 152056
6 | 33:47.32 | 6:23.40 | 152057 | 180821
7 | 40:10.72 | 1:13.22 | 180822 | 186318
8 | 41:24.19 | 8:02.18 | 186319 | 222486
9 | 49:26.37 | 2:02.30 | 222487 | 231666
10 | 51:28.67 | 2:08.52 | 231667 | 241318
11 | 53:37.44 | 1:22.64 | 241319 | 247532
12 | 55:00.33 | 2:59.39 | 247533 | 260996
13 | 57:59.72 | 3:18.68 | 260997 | 275914


Range status and errors

Selected range

Filename C:\temp\Bizet - Les Pecheurs de Perles - 2018\CD2\Bizet - Les pecheurs de perles - CD2.wav

Peak level 91.2 %
Extraction speed 4.0 X
Range quality 100.0 %
Test CRC 0209E7B5
Copy CRC 0209E7B5
Copy OK

No errors occurred


AccurateRip summary

Track 1 accurately ripped (confidence 1) [07FE7C0B] (AR v2)
Track 2 accurately ripped (confidence 1) [1C0AA9B3] (AR v2)
Track 3 accurately ripped (confidence 1) [0B2FFB48] (AR v2)
Track 4 accurately ripped (confidence 1) [1213D52A] (AR v2)
Track 5 accurately ripped (confidence 1) [7D8A38B5] (AR v2)
Track 6 accurately ripped (confidence 1) [1FE239E9] (AR v2)
Track 7 accurately ripped (confidence 1) [09EFCB03] (AR v2)
Track 8 accurately ripped (confidence 1) [A98F2290] (AR v2)
Track 9 accurately ripped (confidence 1) [0DEC7EA7] (AR v2)
Track 10 accurately ripped (confidence 1) [C2733721] (AR v2)
Track 11 accurately ripped (confidence 1) [B66753AD] (AR v2)
Track 12 accurately ripped (confidence 1) [9405322A] (AR v2)
Track 13 accurately ripped (confidence 1) [C3D1E18D] (AR v2)

All tracks accurately ripped

End of status report

==== Log checksum 1370C75DA21E7A22D99A00A6745BC0AFC960795BAB6B7A676E52561C6C348A6B ====

Alexandre Bloch, Orchestre National de Lille - Bizet: Les Pecheurs de perles (2018)

Thanks to the original releaser