Tags
Language
Tags

Alexei Ogrintchouk, Members of the Concertgebouworkest - Mozart: Gran Partita (2020)

Posted By: ArlegZ
Alexei Ogrintchouk, Members of the Concertgebouworkest - Mozart: Gran Partita (2020)

Alexei Ogrintchouk, Members of the Concertgebouworkest - Mozart: Gran Partita; Beethoven: Eight Variations on ‘Là ci darem la mano’ (2020)
EAC | FLAC | Image (Cue & Log) ~ 236 Mb | Total time: 58:07 | Scans included
Classical | Label: BIS Records | # BIS-2463 SACD | Recorded: 2019

Better known as Gran Partita, Mozart’s Serenade in B-flat major, K 361 is the crowning glory of the Harmoniemusik of the Classical era. Austrian and German nobles in particular often employed small wind ensembles called Harmonien which provided entertainment during banquets and outdoor festivities. In order to satisfy the growing demand for suitable music, countless arrangements of operas and ballet music were made, while original works were supplied by a wide range of composers – Haydn, Beethoven, Schubert and many lesser masters wrote Harmoniemusik.
Among their works, Mozart’s Serenade stands out for several reasons. It is on a larger scale than most: with seven movements and a duration of some 50 minutes, it is scored for thirteen instruments rather than the usual eight or nine. But conceived with a cyclical layout and with a highly economic use of motivic material, it also displays a compositional sophistication unusual for the genre. The Gran Partita is here performed by wind players from one of the world’s finest orchestras, the Amsterdam Concertgebouworkest, under the direction of oboist Alexei Ogrintchouk. Ogrintchouk has also chosen the coupling, a set of variations by Beethoven on Mozart’s famous aria from Don Giovanni scored for two oboes and English horn.

Performer:
Nicoline Alt, oboe (14-22)
Miriam Pastor Burgos, cor anglais (14-22)
Members of Concertgebouworkest (1-13)
Alexei Ogrintchouk, oboe & direction

Track List:
Wolfgang Amadeus Mozart (1756-1791)
Serenade in B flat major, ’Gran Partita’, K 361/370a
01. I. Largo - Molto allegro
02. II. Menuetto - Trio I & II
03. III. Adagio
04. IV. Menuetto. Allegretto - Trio I & II
05. V. Romanze. Adagio - Allegretto - Adagio & VI. Tema con variazioni
06. Tema. Andante
07. Variation 1
08. Variation 2
09. Variation 3
10. Variation 4
11. Variation 5
12. Variation 6
13. Variation 7
Ludwig van Beethoven (1770-1827)
Eight Variations on ‘Là ci darem la mano’
14. Thema. Andante
15. Variation I
16. Variation II
17. Variation III
18. Variation IV
19. Variation V
20. Variation VI
21. Variation VII
22. Variation VIII


Exact Audio Copy V1.5 from 20. February 2020

EAC extraction logfile from 7. January 2022, 23:35

Alexei Ogrintchouk, Members of the Concertgebouworkest / Mozart - Gran Partita

Used drive : ASUS SDRW-08U7M-U Adapter: 1 ID: 0

Read mode : Secure
Utilize accurate stream : Yes
Defeat audio cache : Yes
Make use of C2 pointers : No

Read offset correction : 6
Overread into Lead-In and Lead-Out : No
Fill up missing offset samples with silence : Yes
Delete leading and trailing silent blocks : No
Null samples used in CRC calculations : Yes
Used interface : Native Win32 interface for Win NT & 2000

Used output format : User Defined Encoder
Selected bitrate : 128 kBit/s
Quality : High
Add ID3 tag : No
Command line compressor : C:\Program Files (x86)\Exact Audio Copy\Flac\flac.exe
Additional command line options : -V -8 -T "Date=%year%" -T "Genre=%genre%" %source%

TOC of the extracted CD

Track | Start | Length | Start sector | End sector
––––––––––––––––––––––––––––-
1 | 0:00.00 | 9:23.13 | 0 | 42237
2 | 9:23.13 | 8:47.29 | 42238 | 81791
3 | 18:10.42 | 5:12.06 | 81792 | 105197
4 | 23:22.48 | 4:57.74 | 105198 | 127546
5 | 28:20.47 | 6:45.28 | 127547 | 157949
6 | 35:06.00 | 1:09.61 | 157950 | 163185
7 | 36:15.61 | 1:11.31 | 163186 | 168541
8 | 37:27.17 | 1:13.62 | 168542 | 174078
9 | 38:41.04 | 1:15.41 | 174079 | 179744
10 | 39:56.45 | 1:16.16 | 179745 | 185460
11 | 41:12.61 | 2:23.43 | 185461 | 196228
12 | 43:36.29 | 0:51.67 | 196229 | 200120
13 | 44:28.21 | 3:44.11 | 200121 | 216931
14 | 48:12.32 | 0:58.11 | 216932 | 221292
15 | 49:10.43 | 0:40.63 | 221293 | 224355
16 | 49:51.31 | 0:44.46 | 224356 | 227701
17 | 50:36.02 | 0:55.44 | 227702 | 231870
18 | 51:31.46 | 0:38.29 | 231871 | 234749
19 | 52:10.00 | 0:49.49 | 234750 | 238473
20 | 52:59.49 | 1:13.53 | 238474 | 244001
21 | 54:13.27 | 0:46.64 | 244002 | 247515
22 | 55:00.16 | 3:07.17 | 247516 | 261557

Range status and errors

Selected range

Filename C:\temp\BIS-SACD-2463 - Mozart - Gran Partita - 2020\Mozart - Gran Partita.wav

Peak level 96.6 %
Extraction speed 5.0 X
Range quality 100.0 %
Test CRC 4E6773C3
Copy CRC 4E6773C3
Copy OK

No errors occurred

AccurateRip summary

Track 1 accurately ripped (confidence 5) [5575DB61] (AR v2)
Track 2 accurately ripped (confidence 5) [FD5C4214] (AR v2)
Track 3 accurately ripped (confidence 5) [18325B3C] (AR v2)
Track 4 accurately ripped (confidence 4) [DEB7675B] (AR v2)
Track 5 accurately ripped (confidence 4) [F6122E9C] (AR v2)
Track 6 accurately ripped (confidence 4) [BBDFAD17] (AR v2)
Track 7 accurately ripped (confidence 5) [2EF91FB1] (AR v2)
Track 8 accurately ripped (confidence 5) [45D6173B] (AR v2)
Track 9 accurately ripped (confidence 4) [505AA8E7] (AR v2)
Track 10 accurately ripped (confidence 5) [5BC25AE9] (AR v2)
Track 11 accurately ripped (confidence 5) [A7163376] (AR v2)
Track 12 accurately ripped (confidence 5) [4C91F446] (AR v2)
Track 13 accurately ripped (confidence 5) [61A3F8D7] (AR v2)
Track 14 accurately ripped (confidence 4) [6F004947] (AR v2)
Track 15 accurately ripped (confidence 4) [9C37330F] (AR v2)
Track 16 accurately ripped (confidence 4) [3DFA4775] (AR v2)
Track 17 accurately ripped (confidence 4) [5ACB0B74] (AR v2)
Track 18 accurately ripped (confidence 5) [490B3DDB] (AR v2)
Track 19 accurately ripped (confidence 4) [D7D09A0C] (AR v2)
Track 20 accurately ripped (confidence 4) [622CBD9F] (AR v2)
Track 21 accurately ripped (confidence 4) [AABE1BBF] (AR v2)
Track 22 accurately ripped (confidence 4) [5DAC4953] (AR v2)

All tracks accurately ripped

End of status report

==== Log checksum DD34677E1C626DD6962FD4500653FB940E8D13D55BB987C6D2A6D83AEB546BB2 ====

Alexei Ogrintchouk, Members of the Concertgebouworkest - Mozart: Gran Partita (2020)

Thanks to the original releaser