Subcategories
Tags
Language
Tags

Alfred Deller, The Deller Consort, The King's Musick - Henry Purcell: King Arthur, Timon of Athens (1979)

Posted By: ArlegZ
Alfred Deller, The Deller Consort, The King's Musick - Henry Purcell: King Arthur, Timon of Athens (1979)

Alfred Deller, The Deller Consort, The King's Musick - Henry Purcell: King Arthur, Timon of Athens (1979)
EAC | FLAC | Image (Cue & Log) ~ 618 Mb | Total time: 57:54+60:23 | Scans included
Classical | Label: Harmonia Mundi | # HMC 90252.53 | Recorded: 1976, 1978

King Arthur (1691), like Purcell’s other great scores for the stage, belongs to a highly unusual genre: it is neither a play nor an opera but a hybrid of the two known as ‘semi-opera’. Alfred Deller’s legendary 1978 recording is one of the benchmark interpretations which introduced music-lovers to Purcell’s masterpiece.

Performer:
The Deller Consort
The Deller Choir
The King's Musick
Alfred Deller, direction

Track List:
CD1:
01a. Overture
01b. Air
01c. Overture
Act I, Sc.2
02a. Bass: "Woden, first to thee"
02b. Chorus: "Brave Souls"
02c. Counter-Tenor: "I call ye all"
03. Tenor And Chorus: "Come if you dare"
Act II
04a. Philidel: "Hither this way bend"
04b. Grimbald: "Let not a Moon-born Elf"
04c. Philidel: "Hitheer this way"
04d. Philidel: "Come follow me"
05a. 1 Shepherd: "How blest are Shepherds"
05b. 2 Shepherdesses: "Shepherd, leave Decoying"
05c. Hornpipe
Act III, Sc.2
06. Prelude. Cupid: "What ho"
07a. Genius: "What power are thou"
07b. Cupid: "Thou doting fool forbear"
07c. Prelude. Chorus: "See, see"
08a. Cupid: "Tis I, that have warm'd ye"
08b. Cupid & Genius: "Sound a parley"
08c. Air
CD2:
Act IV, Sc.2
01. 2 Syrens: "Two Daugthers"
02a. Alto: "How happy the Lover"
02b. Fourth Act Tune
Act V, Sc.2
03a. Trompet Tune
03b. Aeolus: "Ye Blust'ring Brethren"
04a. Symphony
04b. Song Tune. Nereid & Pan: "Round thy Coasts"
04c. Alto, Tenor & Bass: "For Folded Flocks"
05. Song Tune: "Your Hay"
06. Venus: "Fairest Isle"
07a. Soprano: "You say"
07b. Bass: "This not my passion"
07c. Bass: "But one soft Moment"
08a. Trompet Tune
08b. Honour: "St. George"
09. Chaconne
"The Masque" from "Timon of Athens"
10a. Overture
10b. Air
10c. Overture
11a. Duet (Soprano 1 & 2): "Hark"
11b. Solo (Soprano): "Love in their little veins"
11c. Trio (Soprano 1 & 2, Baritone): "Hence with your trifling deity"
12a. Cupid: "Come all"
12b. Chorus: "Who can resist"
12c. Bacchus: "Return, revolting rebels!"
13a. Solo (Soprano): "The cares of lovers"
13b. Solo (Tenor): "Love quickly is palled"
13c. Duet (Cupid & Bacchus), Chorus: "Come, let us agree"


Exact Audio Copy V1.6 from 23. October 2020

EAC extraction logfile from 10. June 2021, 18:14

Deller Consort, Chœur, The King’s Musick, Alfred Deller / King Arthur [D1]

Used drive : MATSHITADVD-RAM UJ8G6 Adapter: 1 ID: 0

Read mode : Secure
Utilize accurate stream : Yes
Defeat audio cache : Yes
Make use of C2 pointers : No

Read offset correction : 103
Overread into Lead-In and Lead-Out : No
Fill up missing offset samples with silence : Yes
Delete leading and trailing silent blocks : No
Null samples used in CRC calculations : Yes
Used interface : Native Win32 interface for Win NT & 2000

Used output format : User Defined Encoder
Selected bitrate : 1024 kBit/s
Quality : High
Add ID3 tag : No
Command line compressor : C:\Program Files (x86)\Exact Audio Copy\FLAC\FLAC.EXE
Additional command line options : -6 -V -T "ARTIST=%artist%" -T "TITLE=%title%" -T "ALBUM=%albumtitle%" -T "DATE=%year%" -T "TRACKNUMBER=%tracknr%" -T "GENRE=%genre%" -T "COMMENT=%comment%" -T "BAND=%albuminterpret%" -T "ALBUMARTIST=%albuminterpret%" -T "COMPOSER=%composer%" %haslyrics%–tag-from-file=LYRICS="%lyricsfile%"%haslyrics% -T "DISCNUMBER=%cdnumber%" -T "TOTALDISCS=%totalcds%" -T "TOTALTRACKS=%numtracks%" %hascover%–picture="%coverfile%"%hascover% %source% -o %dest%


TOC of the extracted CD

Track | Start | Length | Start sector | End sector
––––––––––––––––––––––––––––-
1 | 0:00.00 | 5:17.72 | 0 | 23846
2 | 5:17.72 | 10:26.03 | 23847 | 70799
3 | 15:44.00 | 5:52.47 | 70800 | 97246
4 | 21:36.47 | 6:52.50 | 97247 | 128196
5 | 28:29.22 | 9:57.18 | 128197 | 172989
6 | 38:26.40 | 1:43.12 | 172990 | 180726
7 | 40:09.52 | 9:36.23 | 180727 | 223949
8 | 49:46.00 | 8:08.50 | 223950 | 260599


Range status and errors

Selected range

Filename F:\RAT\0 - Attente UP\Deller Consort, Chœur, The King’s Musick, Alfred Deller - King Arthur [D1].wav

Peak level 90.3 %
Extraction speed 3.6 X
Range quality 99.9 %
Test CRC 08E0DCAF
Copy CRC 08E0DCAF
Copy OK

No errors occurred


AccurateRip summary

Track 1 accurately ripped (confidence 19) [CA79269C] (AR v2)
Track 2 accurately ripped (confidence 19) [D60A2547] (AR v2)
Track 3 accurately ripped (confidence 19) [871641B2] (AR v2)
Track 4 accurately ripped (confidence 19) [255684D4] (AR v2)
Track 5 accurately ripped (confidence 18) [562C87B7] (AR v2)
Track 6 accurately ripped (confidence 19) [2D599625] (AR v2)
Track 7 accurately ripped (confidence 19) [BF54B432] (AR v2)
Track 8 accurately ripped (confidence 18) [D922AB35] (AR v2)

All tracks accurately ripped

End of status report

–– CUETools DB Plugin V2.1.6

[CTDB TOCID: g09U9IXPKAi2GV6Y7AOAeZT5EMM-] found
Submit result: g09U9IXPKAi2GV6Y7AOAeZT5EMM- has been confirmed
Track | CTDB Status
1 | (161/164) Accurately ripped
2 | (158/164) Accurately ripped
3 | (161/164) Accurately ripped
4 | (162/164) Accurately ripped
5 | (162/164) Accurately ripped
6 | (162/164) Accurately ripped
7 | (162/164) Accurately ripped
8 | (162/164) Accurately ripped


==== Log checksum 3DB1FCE7B6209B95F724B5EC7A4E37016821B21ECE5144C4CD36AC2250EAD24C ====


Exact Audio Copy V1.6 from 23. October 2020

EAC extraction logfile from 10. June 2021, 18:54

Deller Consort, Chœur, The King’s Musick, Alfred Deller / King Arthur [D2]

Used drive : MATSHITADVD-RAM UJ8G6 Adapter: 1 ID: 0

Read mode : Secure
Utilize accurate stream : Yes
Defeat audio cache : Yes
Make use of C2 pointers : No

Read offset correction : 103
Overread into Lead-In and Lead-Out : No
Fill up missing offset samples with silence : Yes
Delete leading and trailing silent blocks : No
Null samples used in CRC calculations : Yes
Used interface : Native Win32 interface for Win NT & 2000

Used output format : User Defined Encoder
Selected bitrate : 1024 kBit/s
Quality : High
Add ID3 tag : No
Command line compressor : C:\Program Files (x86)\Exact Audio Copy\FLAC\FLAC.EXE
Additional command line options : -6 -V -T "ARTIST=%artist%" -T "TITLE=%title%" -T "ALBUM=%albumtitle%" -T "DATE=%year%" -T "TRACKNUMBER=%tracknr%" -T "GENRE=%genre%" -T "COMMENT=%comment%" -T "BAND=%albuminterpret%" -T "ALBUMARTIST=%albuminterpret%" -T "COMPOSER=%composer%" %haslyrics%–tag-from-file=LYRICS="%lyricsfile%"%haslyrics% -T "DISCNUMBER=%cdnumber%" -T "TOTALDISCS=%totalcds%" -T "TOTALTRACKS=%numtracks%" %hascover%–picture="%coverfile%"%hascover% %source% -o %dest%


TOC of the extracted CD

Track | Start | Length | Start sector | End sector
––––––––––––––––––––––––––––-
1 | 0:00.00 | 1:50.25 | 0 | 8274
2 | 1:50.25 | 7:49.38 | 8275 | 43487
3 | 9:39.63 | 3:26.30 | 43488 | 58967
4 | 13:06.18 | 7:07.00 | 58968 | 90992
5 | 20:13.18 | 2:41.50 | 90993 | 103117
6 | 22:54.68 | 3:37.70 | 103118 | 119462
7 | 26:32.63 | 4:57.50 | 119463 | 141787
8 | 31:30.38 | 4:28.22 | 141788 | 161909
9 | 35:58.60 | 4:01.23 | 161910 | 180007
10 | 40:00.08 | 4:30.35 | 180008 | 200292
11 | 44:30.43 | 6:50.00 | 200293 | 231042
12 | 51:20.43 | 4:55.22 | 231043 | 253189
13 | 56:15.65 | 4:07.60 | 253190 | 271774


Range status and errors

Selected range

Filename F:\RAT\0 - Attente UP\Deller Consort, Chœur, The King’s Musick, Alfred Deller - King Arthur [D2].wav

Peak level 92.6 %
Extraction speed 3.5 X
Range quality 99.9 %
Test CRC 1BDC636E
Copy CRC 1BDC636E
Copy OK

No errors occurred


AccurateRip summary

Track 1 accurately ripped (confidence 19) [EDD2F29B] (AR v2)
Track 2 accurately ripped (confidence 18) [34D40606] (AR v2)
Track 3 accurately ripped (confidence 18) [ECEA8EB3] (AR v2)
Track 4 accurately ripped (confidence 18) [6101E4D8] (AR v2)
Track 5 accurately ripped (confidence 20) [7CB6B9E9] (AR v2)
Track 6 accurately ripped (confidence 19) [58BBA5D3] (AR v2)
Track 7 accurately ripped (confidence 19) [330AB53C] (AR v2)
Track 8 accurately ripped (confidence 19) [B4A7841E] (AR v2)
Track 9 accurately ripped (confidence 19) [DD22F9DA] (AR v2)
Track 10 accurately ripped (confidence 19) [367CC42C] (AR v2)
Track 11 accurately ripped (confidence 19) [BD584ED2] (AR v2)
Track 12 accurately ripped (confidence 18) [550B5CF0] (AR v2)
Track 13 accurately ripped (confidence 17) [C1DBB786] (AR v2)

All tracks accurately ripped

End of status report

–– CUETools DB Plugin V2.1.6

[CTDB TOCID: HZvVYbF6sj1vaBsRpUT9bqdupIA-] found
Submit result: HZvVYbF6sj1vaBsRpUT9bqdupIA- has been confirmed
Track | CTDB Status
1 | (82/84) Accurately ripped
2 | (78/84) Accurately ripped
3 | (82/84) Accurately ripped
4 | (81/84) Accurately ripped
5 | (82/84) Accurately ripped
6 | (82/84) Accurately ripped
7 | (82/84) Accurately ripped
8 | (82/84) Accurately ripped
9 | (82/84) Accurately ripped
10 | (81/84) Accurately ripped
11 | (82/84) Accurately ripped
12 | (82/84) Accurately ripped
13 | (81/84) Accurately ripped


==== Log checksum F4DE32BDB840B77A5601EE3BC0877B81E6407A7EA5D8AA93203321226C508819 ====

Alfred Deller, The Deller Consort, The King's Musick - Henry Purcell: King Arthur, Timon of Athens (1979)

Thanks to the original releaser