Subcategories

Amarcord, Eric Schneider - Schubert (2016)

Posted By: tirexiss
Amarcord, Eric Schneider - Schubert (2016)

Amarcord, Eric Schneider - Schubert (2016)
EAC | FLAC (image+.cue, log) | Covers Included | 66:55 | 284 MB
Genre: Classical, Vocal | Label: Raumklang | Catalog: RKap10116

Amarcord is a popular male vocal ensemble devoted largely to Medieval- and Renaissance-era music. The group also sings works by contemporary composers and performs arrangements of songs from various periods. Amarcord is an unusual ensemble in that it consists of just five singers who sing a cappella. There are two tenors, one baritone, and two basses. The sound is quite individual, imparting a mellow, somewhat Romantic approach to the vocal style, with the two tenor voices often singing the lead parts. Much of the early music repertory is from the sacred realm, consisting of chant, hymns, motets, and other religious genres. The group also sings madrigals, Christmas songs, and various secular works, including Classical, Romantic, and modern compositions, as well as pop and rock. Amarcord has made numerous recordings for several labels, including Raumklang, Ars Musici, and EuroArts.
Amarcord was formed in autumn 1992 in Leipzig. The five members – tenors Wolfram and Martin Lattke; baritone Frank Ozimek; and basses Daniel Knauft and Holger Krause – were previously singers in the Leipzig-based St. Thomas Boys Choir. Following its formation, the Amarcord singers took master classes from the Hilliard Ensemble and the King's Singers. The young ensemble then went on to win, or win prizes at, several prestigious choral competitions, including those in Tolosa, Spain; Tampere, Finland; and Pohlheim, Germany.
Amarcord's first recording appeared in 1998, a Christmas album entitled In adventu Domini, on Raumklang Records. In 2002 Amarcord won the German Music Competition in Bonn, giving the ensemble its most impressive competition victory. Already a well-known singing group throughout Germany and parts of Europe, it was in demand on the international scene now. Amarcord toured not only throughout Europe, but the U.S., Southeast Asia, and Australia. In 2006 Amarcord's pop CD, And So It Goes, was released by Raumklang. Containing arrangements of songs by Ray Charles, Billy Joel, the Beatles, Percy Mayfield, and other popular artists and groups, it became one of the group's more successful recordings.
Amarcord's concert schedule has remained a busy one: 2010 involved stops throughout Germany, France, Belgium, Czechoslovakia, and the U.S. Included are appearances at various European music festivals, like the Concentus Moraviae Festival (Czechoslovakia), Rheingau Music Festival (Germany), and the Festival de La Chaise-Dieu (France). Amarcord's later recordings include the 2009 Raumklang CD Rastlose Liebe (Restless Love), which contains songs by Mendelssohn, Schumann, and other notables.

Amarcord, Eric Schneider - Schubert (2016)

Track List:

1. Ständchen (Erste Fassung), D 920
2. Leise, leise laßt uns singen, D 635
3. Gondelfahrer, D 809
4. Der Geistertanz, D 494
5. Mondenschein, D 875
6. Sehnsucht, D 656
7. Zur guten Nacht, D 903
8. Gesang der Geister über den Wassern (Zweite Fassung), D 538
9. Im Gegenwärtigen Vergangenes, D 710
10. Unendliche Freude durchwallet das Herz, D 51
11. Dessen Fahne Donnerstürme wallte, D 58
12. Trinklied (Freunde, sammelt euch im Kreise), D 75
13. La pastorella al prato, D 513
14. Wehmut, D 825
15. Geist der Liebe, D 747
16. Ruhe, schönstes Glück der Erde, D 657
17. Nachthelle, D 892

Performers:
Aarcord
Wolfram Lattke, tenor
Robert Pohlers, tenor
Frank Ozimek, bariton
Daniel Knauft, bass
Holger Krause, bass
Eric Schneider, piano

Exact Audio Copy V1.3 from 2. September 2016

EAC extraction logfile from 18. August 2017, 22:47

amarcord, Eric Schneider / Schubert - Songs

Used drive : PLDS DVD-RW DU8A6SH Adapter: 1 ID: 0

Read mode : Secure
Utilize accurate stream : Yes
Defeat audio cache : Yes
Make use of C2 pointers : No

Read offset correction : 6
Overread into Lead-In and Lead-Out : No
Fill up missing offset samples with silence : Yes
Delete leading and trailing silent blocks : No
Null samples used in CRC calculations : Yes
Used interface : Native Win32 interface for Win NT & 2000

Used output format : User Defined Encoder
Selected bitrate : 128 kBit/s
Quality : High
Add ID3 tag : No
Command line compressor : C:\Program Files (x86)\Exact Audio Copy\Flac\flac.exe
Additional command line options : -V -8 -T "Date=%year%" -T "Genre=%genre%" %source%


TOC of the extracted CD

Track | Start | Length | Start sector | End sector
––––––––––––––––––––––––––––-
1 | 0:00.00 | 5:23.68 | 0 | 24292
2 | 5:23.68 | 3:27.41 | 24293 | 39858
3 | 8:51.34 | 3:06.29 | 39859 | 53837
4 | 11:57.63 | 2:13.12 | 53838 | 63824
5 | 14:11.00 | 4:41.11 | 63825 | 84910
6 | 18:52.11 | 3:37.71 | 84911 | 101256
7 | 22:30.07 | 3:44.56 | 101257 | 118112
8 | 26:14.63 | 7:41.26 | 118113 | 152713
9 | 33:56.14 | 6:29.72 | 152714 | 181960
10 | 40:26.11 | 1:44.62 | 181961 | 189822
11 | 42:10.73 | 1:28.59 | 189823 | 196481
12 | 43:39.57 | 2:43.49 | 196482 | 208755
13 | 46:23.31 | 1:47.30 | 208756 | 216810
14 | 48:10.61 | 4:51.37 | 216811 | 238672
15 | 53:02.23 | 4:05.04 | 238673 | 257051
16 | 57:07.27 | 4:45.04 | 257052 | 278430
17 | 61:52.31 | 5:01.20 | 278431 | 301025


Range status and errors

Selected range

Filename C:\temp\Schubert - amarcord, Eric Schneider\Schubert - Songs.wav

Peak level 96.6 %
Extraction speed 3.6 X
Range quality 100.0 %
Test CRC B2F8DEED
Copy CRC B2F8DEED
Copy OK

No errors occurred


AccurateRip summary

Track 1 accurately ripped (confidence 1) [009C47C7] (AR v2)
Track 2 accurately ripped (confidence 1) [9CD4801F] (AR v2)
Track 3 accurately ripped (confidence 1) [1EB14C4A] (AR v2)
Track 4 accurately ripped (confidence 1) [1BCB4BEC] (AR v2)
Track 5 accurately ripped (confidence 1) [4187E97D] (AR v2)
Track 6 accurately ripped (confidence 1) [7D2B81E2] (AR v2)
Track 7 accurately ripped (confidence 1) [F6170338] (AR v2)
Track 8 accurately ripped (confidence 1) [557ED3AC] (AR v2)
Track 9 accurately ripped (confidence 1) [3916D4CA] (AR v2)
Track 10 accurately ripped (confidence 1) [190D5020] (AR v2)
Track 11 accurately ripped (confidence 1) [D9AEBF65] (AR v2)
Track 12 accurately ripped (confidence 1) [CA1F7756] (AR v2)
Track 13 accurately ripped (confidence 1) [55299DCE] (AR v2)
Track 14 accurately ripped (confidence 1) [A82D160A] (AR v2)
Track 15 accurately ripped (confidence 1) [F31A85BC] (AR v2)
Track 16 accurately ripped (confidence 1) [28400956] (AR v2)
Track 17 accurately ripped (confidence 1) [7EA97933] (AR v2)

All tracks accurately ripped

End of status report

==== Log checksum 453B2015854D5D999405CEB7D8E5BB15DDEFAB3A46359C173D3FA60B4D463A18 ====

[CUETools log; Date: 19.05.2018 9:33:01; Version: 2.1.5]
[CTDB TOCID: m3VP.VxXTdh3mxb8njBmQcAGhi0-] found.
Track | CTDB Status
1 | (6/6) Accurately ripped
2 | (6/6) Accurately ripped
3 | (6/6) Accurately ripped
4 | (6/6) Accurately ripped
5 | (6/6) Accurately ripped
6 | (6/6) Accurately ripped
7 | (6/6) Accurately ripped
8 | (6/6) Accurately ripped
9 | (6/6) Accurately ripped
10 | (6/6) Accurately ripped
11 | (6/6) Accurately ripped
12 | (6/6) Accurately ripped
13 | (6/6) Accurately ripped
14 | (6/6) Accurately ripped
15 | (6/6) Accurately ripped
16 | (6/6) Accurately ripped
17 | (6/6) Accurately ripped
[AccurateRip ID: 00295171-02085183-ef0fad11] found.
Track [ CRC | V2 ] Status
01 [55dfa464|009c47c7] (0+2/2) Accurately ripped
02 [79a00ebd|9cd4801f] (0+2/2) Accurately ripped
03 [5b9d55c9|1eb14c4a] (0+2/2) Accurately ripped
04 [fa48c867|1bcb4bec] (0+2/2) Accurately ripped
05 [5b6285f9|4187e97d] (0+2/2) Accurately ripped
06 [3a7b1906|7d2b81e2] (0+2/2) Accurately ripped
07 [d11072a7|f6170338] (0+2/2) Accurately ripped
08 [e4302e9e|557ed3ac] (0+2/2) Accurately ripped
09 [151f8dd0|3916d4ca] (0+2/2) Accurately ripped
10 [a8136a4a|190d5020] (0+2/2) Accurately ripped
11 [8778cff9|d9aebf65] (0+2/2) Accurately ripped
12 [51d690dc|ca1f7756] (0+2/2) Accurately ripped
13 [1ca7179a|55299dce] (0+2/2) Accurately ripped
14 [dee31200|a82d160a] (0+2/2) Accurately ripped
15 [45822eaf|f31a85bc] (0+2/2) Accurately ripped
16 [3e2d8ef8|28400956] (0+2/2) Accurately ripped
17 [da881c5f|7ea97933] (0+2/2) Accurately ripped

Track Peak [ CRC32 ] [W/O NULL] [ LOG ]
– 96,6 [B2F8DEED] [6D19CF7D] CRC32
01 85,4 [6C988986] [3F71AEB3]
02 23,8 [07303FE5] [212FF7CE]
03 36,4 [36B4B67B] [0C31BAA2]
04 29,0 [DDBC778E] [E75FE1DF]
05 54,8 [C978C2CF] [362AFC86]
06 42,6 [4163B765] [62F4701A]
07 59,9 [913EF4E5] [3EFFDD81]
08 82,4 [2473C207] [5566F3CE]
09 74,3 [517CC980] [8EE6D016]
10 40,1 [9707976C] [B623BF42]
11 40,4 [49BBD44B] [8E3509F1]
12 96,6 [FEFE6BF3] [6DD00550]
13 44,6 [225203A9] [F099F10B]
14 75,4 [B21FD7C2] [F816D625]
15 57,0 [D1B56A99] [5E8A2403]
16 49,0 [8CF0C4A1] [0FECDB4D]
17 96,6 [BC9B754A] [B91EF65E]

Thanks to the Original ripper A-Z!

Download: