Subcategories

Ambrose Slade - Beginnings (1969) [Japan (mini LP) CD 2006] Re-up

Posted By: Andi_Deris
Ambrose Slade - Beginnings (1969) [Japan (mini LP) CD 2006] Re-up

Ambrose Slade - Beginnings (1969) [Japan (mini LP) CD 2006]
EAC Rip | FLAC: Image+Cue+Log | 226 Mb | MP3 CBR 320 kbps | 103 Mb | Scans | 41:12
Air Mail Archive | AIRAC-1299
Rock, Glam Rock, Psychedelic

Beginnings is the debut studio album by the British rock band Ambrose Slade, before they achieved fame as Slade. It was released on 9 May 1969, but failed to enter the charts. In the US, it was released under the title Ballzy.

Beginnings is a mixture of self-penned songs and cover versions including two tracks by Steppenwolf. As to confirm the diversity of the group's influences, they also cut Ted Nugent & The Amboy Dukes' "Journey to the Centre of Your Mind", "Ain't Got No Heart" by Frank Zappa & The Mothers of Invention, The Moody Blues' "Fly Me High", Lennon and McCartney's "Martha My Dear" and "If This World Were Mine" by Marvin Gaye.

Ambrose Slade - Beginnings (1969) [Japan (mini LP) CD 2006] Re-up




Track Listing

01. Genesis (3:17)
02. Everybody's Next One (2:46)
03. Knocking Nails Into My House (2:25)
04. Roach Daddy (3:06)
05. Ain't Got No Heart (2:38)
06. Pity The Mother (3:59)
07. Mad Dog Cole (2:43)
08. Fly Me High (2:58)
09. If This World Were Mine (3:17)
10. Martha My Dear (2:20)
11. Born To Be Wild (3:26)
12. Journey To The Centre Of Your Mind (2:55)

Bonus tracks
13. Wild Winds Are Blowing (2:40)
14. C'Mon C'Mon (2:42)

Produced by Ambrose Slade & Roger Wake
Remastered by Yoshiro Kuzumaki

The Band

• Noddy Holder - lead vocals, rhythm guitar
• Dave Hill - lead guitar
• Jim Lea - bass guitar
• Don Powell - drums

Notes

Track 13 was originally released as a single, Fontana TF-1056 in 1969
Track 14 was originally released as a single, Fontana TF-1079 in 1970

Japanese Limited Edition, 24-bit Remastered


Exact Audio Copy V1.0 beta 3 from 29. August 2011

EAC extraction logfile from 26. July 2013, 15:09

Slade / Ambrose Slade

Used drive : Optiarc BDRW BD-M100A Adapter: 0 ID: 0

Read mode : Secure
Utilize accurate stream : Yes
Defeat audio cache : Yes
Make use of C2 pointers : No

Read offset correction : 102
Overread into Lead-In and Lead-Out : No
Fill up missing offset samples with silence : Yes
Delete leading and trailing silent blocks : No
Null samples used in CRC calculations : Yes
Used interface : Native Win32 interface for Win NT & 2000

Used output format : User Defined Encoder
Selected bitrate : 128 kBit/s
Quality : High
Add ID3 tag : No
Command line compressor : C:\Program Files (x86)\Exact Audio Copy\Flac\flac.exe
Additional command line options : -V -8 -T "Date=%year%" -T "Genre=%genre%" %source%


TOC of the extracted CD

Track | Start | Length | Start sector | End sector
––––––––––––––––––––––––––––-
1 | 0:00.00 | 3:17.24 | 0 | 14798
2 | 3:17.24 | 2:46.73 | 14799 | 27321
3 | 6:04.22 | 2:25.74 | 27322 | 38270
4 | 8:30.21 | 3:06.17 | 38271 | 52237
5 | 11:36.38 | 2:38.65 | 52238 | 64152
6 | 14:15.28 | 3:59.66 | 64153 | 82143
7 | 18:15.19 | 2:43.54 | 82144 | 94422
8 | 20:58.73 | 2:58.69 | 94423 | 107841
9 | 23:57.67 | 3:17.59 | 107842 | 122675
10 | 27:15.51 | 2:20.56 | 122676 | 133231
11 | 29:36.32 | 3:26.43 | 133232 | 148724
12 | 33:03.00 | 2:55.66 | 148725 | 161915
13 | 35:58.66 | 2:40.44 | 161916 | 173959
14 | 38:39.35 | 2:42.40 | 173960 | 186149


Range status and errors

Selected range

Filename C:\Users\Desktop\Slade-Beginnings\Slade - Ambrose Slade.wav

Peak level 93.8 %
Extraction speed 4.8 X
Range quality 100.0 %
Test CRC AD72A076
Copy CRC AD72A076
Copy OK

No errors occurred

End of status report

==== Log checksum 617CF19E513662AE6E781A92C05442919448908615C5291D62B57859634668EB ====


Many thanks to the original uploader: uta5erika5





Password: pass