Subcategories

André Charlet - Gounod: Requiem, Messe No. 2 (1993)

Posted By: tirexiss
André Charlet - Gounod: Requiem, Messe No. 2 (1993)

André Charlet - Gounod: Requiem, Messe No. 2 (1993)
EAC | FLAC (image+.cue, log) | Covers Included | 01:06:23 | 312 MB
Genre: Classical, Sacred, Choral | Label: Claves | Catalog: 9326

On ne fait pas plus désolé que le chromatisme à l'orgue qui ouvre ce Requiem, avant que les chœurs n'en reprennent la lente progression en demi-tons qui, cette fois, montent et se poursuivront tout au long de l'œuvre. Enregistrée en 1993, cette version originale - quatre solistes, chœurs, harpe, orgue, quatuor à cordes - contraste, par son intimisme et sa discrétion avec les prodigieux déferlements de Mors et Vita, laissant apprécier la rare plénitude de l'inspiration musicale portée par la rare fougue de tous les interprètes, notamment dans le Dies Irae, dont on dirait les phrases mordues, tant elles sont scandées avec conviction; mais on goûte avec le même bonheur la tendre sérénité d'un fragile et délicat Benedictus, d'autant plus émouvant que Gounod mourut tandis qu'il l'écrivait, ou d'un merveilleux Recordare, comparable au In Paradisum de Fauré. André Charlet mène avec efficacité un ensemble d'où ressort la belle complicité des chanteurs et des musiciens. Pour la Messe n°2, c'est la Chorale du Bassus qui délivre harmonies audacieuses et rythmes inattendus, jusqu'à un O Salutaris chanté sotto voce et un Agnus Dei tout en fine dentelle, à fleur de lèvres. Cinquante-cinq voix d'hommes qui soulèvent à peine le silence : fabuleux. (Danielle Porte)

André Charlet - Gounod: Requiem, Messe No. 2 (1993)

Track List:

01. Requiem for soloists, chorus & piano or organ in C major (arranged & edited by H. Busser)- Introit and Kyrie [0:06:00.65]
02. Requiem for soloists, chorus & piano or organ in C major (arranged & edited by H. Busser)- Dies Irae [0:14:30.05]
03. Requiem for soloists, chorus & piano or organ in C major (arranged & edited by H. Busser)- Sanctus [0:01:28.27]
04. Requiem for soloists, chorus & piano or organ in C major (arranged & edited by H. Busser)- Benedictus [0:03:45.65]
05. Requiem for soloists, chorus & piano or organ in C major (arranged & edited by H. Busser)- Pie Jesu [0:03:34.00]
06. Requiem for soloists, chorus & piano or organ in C major (arranged & edited by H. Busser)- Agnus Dei [0:06:51.13]
07. Messe pour les sociétés communautés réligieuses No. 2, for male chorus and organ ad lib. in G major- Kyrie eleison [0:05:47.30]
08. Messe pour les sociétés communautés réligieuses No. 2, for male chorus and organ ad lib. in G major- Gloria [0:05:51.67]
09. Messe pour les sociétés communautés réligieuses No. 2, for male chorus and organ ad lib. in G major- Credo [0:08:44.03]
10. Messe pour les sociétés communautés réligieuses No. 2, for male chorus and organ ad lib. in G major- Sanctus [0:01:39.02]
11. Messe pour les sociétés communautés réligieuses No. 2, for male chorus and organ ad lib. in G major- O salutaris [0:02:51.05]
12. Messe pour les sociétés communautés réligieuses No. 2, for male chorus and organ ad lib. in G major- Agnus Dei [0:04:50.33]

Performers:
Eva Buffoni - soprano
Irène Friedli - contralto
Ruben Amoreti - tenor
Alain Clément - bass
Quartet Sine Nomine
Michel Veuillon - double bass
Christine Fleishmann - harp
François Margot - organ
Choeur de Chambre Romand
Chorale du Brassus
André Charlet - conductor

Exact Audio Copy V1.0 beta 3 from 29. August 2011

EAC extraction logfile from 13. October 2012, 10:06

Various Artists / Gounod - Requiem; Messe No. 2 - Charlet

Used drive : TSSTcorpCDDVDW SH-222BB Adapter: 2 ID: 1

Read mode : Secure
Utilize accurate stream : Yes
Defeat audio cache : Yes
Make use of C2 pointers : No

Read offset correction : 6
Overread into Lead-In and Lead-Out : No
Fill up missing offset samples with silence : Yes
Delete leading and trailing silent blocks : No
Null samples used in CRC calculations : Yes
Used interface : Native Win32 interface for Win NT & 2000

Used output format : User Defined Encoder
Selected bitrate : 1024 kBit/s
Quality : High
Add ID3 tag : No
Command line compressor : C:\Program Files\Exact Audio Copy\Flac\flac.exe
Additional command line options : -8 -V -T "TITLE=%title%" -T "ARTIST=%artist%" -T "ALBUMARTIST=%albumartist%" -T "ALBUM=%albumtitle%" -T "DATE=%year%" -T "TRACKNUMBER=%tracknr%" -T "TRACKTOTAL=%numtracks%" -T "GENRE=%genre%" -T "COMMENT=%comment%" -T "PERFORMER=%albuminterpret%" -T "COMPOSER=%composer%" %source% -o %dest%


TOC of the extracted CD

Track | Start | Length | Start sector | End sector
––––––––––––––––––––––––––––-
1 | 0:00.00 | 6:00.65 | 0 | 27064
2 | 6:00.65 | 14:30.05 | 27065 | 92319
3 | 20:30.70 | 1:28.27 | 92320 | 98946
4 | 21:59.22 | 3:45.65 | 98947 | 115886
5 | 25:45.12 | 3:34.00 | 115887 | 131936
6 | 29:19.12 | 6:51.13 | 131937 | 162774
7 | 36:10.25 | 5:47.30 | 162775 | 188829
8 | 41:57.55 | 5:51.67 | 188830 | 215221
9 | 47:49.47 | 8:44.03 | 215222 | 254524
10 | 56:33.50 | 1:39.02 | 254525 | 261951
11 | 58:12.52 | 2:51.05 | 261952 | 274781
12 | 61:03.57 | 4:50.33 | 274782 | 296564


Range status and errors

Selected range

Filename G:\Ripped general\[1620] Gounod - Requiem; Messe No. 2 - Charlet\Gounod - Requiem; Messe No. 2 - Charlet.wav

Peak level 95.9 %
Extraction speed 8.0 X
Range quality 100.0 %
Test CRC 546A1241
Copy CRC 546A1241
Copy OK

No errors occurred


AccurateRip summary

Track 1 accurately ripped (confidence 4) [B23D8B63] (AR v1)
Track 2 accurately ripped (confidence 4) [4C26649F] (AR v1)
Track 3 accurately ripped (confidence 4) [96D75F9A] (AR v1)
Track 4 accurately ripped (confidence 4) [C6BAD13C] (AR v1)
Track 5 accurately ripped (confidence 4) [F7E182BA] (AR v1)
Track 6 accurately ripped (confidence 4) [9D9C2CED] (AR v1)
Track 7 accurately ripped (confidence 4) [B2EAEB6E] (AR v1)
Track 8 accurately ripped (confidence 4) [113F9077] (AR v1)
Track 9 accurately ripped (confidence 3) [08020CB7] (AR v1)
Track 10 accurately ripped (confidence 4) [4FB16416] (AR v1)
Track 11 accurately ripped (confidence 3) [5A867879] (AR v1)
Track 12 accurately ripped (confidence 4) [C560727C] (AR v1)

All tracks accurately ripped

End of status report

Thanks to the Original ripper (unknown)!

Welcome to my blog!

Download: