Tags
Language
Tags

Andrea De Carlo, Il Pomod'Oro - Alessandro Stradella: La Doriclea (2018)

Posted By: ArlegZ
Andrea De Carlo, Il Pomod'Oro - Alessandro Stradella: La Doriclea (2018)

Andrea De Carlo, Il Pomod'Oro - Alessandro Stradella: La Doriclea (2018)
EAC | FLAC | Image (Cue & Log) ~ 963 Mb | Total time: 188:21 | Scans included
Classical | Label: Arcana | # A 454 | Recorded: 2017

Alessandro Stradella’s place in the annals of the history of music is not only due to the adventurous circumstances that marked his brief existence, but also to the reputation as a opera composer he has acquired since the 18th century. Inaccessible for many decades to specialists and scholars, La Doriclea is definitely the least known of all Stradella’s operas. However, it constitutes a particularly significant chapter in his overall output: composed in Rome during the early 1670s, to our knowledge La Doriclea represents the first opera entirely composed by Stradella.
From the dramatic point of view, La Doriclea belongs to the comedy of intrigue genre typical of the 17th century Spanish theatre tradition. Refined and amusing, it alternates touching lamentos with irresistibly comic scenes, in which the character of Giraldo, a veritable precursor of the basso buffo, allows us to glimpse Rossinian atmospheres.

Performer:
Doriclea/Lindoro - Emőke Baráth
Lucinda - Giuseppina Bridelli
Fidalbo - Xavier Sabata
Delfina - Gabriella Martellacci
Celindo - Luca Cervoni
Giraldo - Riccardo Novaro
Il Pomo d'Oro
Andrea De Carlo, conductor

Track List:
CD1:
01. ATTO PRIMO. Recitativo (Fidalbo) Si felici sospiri
02. Aria (Fidalbo) Stringe il piè forte catena
03. Recitativo (Giraldo, Fidalbo) Di servitù penosa
04. Aria (Giraldo) Questi son confortini
05. Aria (Lucinda) Stabilito ha più volte il pensiero
06. Recitativo (Lucinda) Per ritrovar Celindo
07. Aria (Celindo) Un incendio io chiudo in seno
08. Recitativo (Celindo, Lucinda) Pur mirate occhi miei
09. Duetto (Lucinda, Celindo) Dal seno sen fugga
10. Aria (Delfina) Vuo' trovare un vago amante
11. Recitativo e Aria (Delfina) Chi delle donne amico si vuol fare
12. Aria (Delfina) Vedo alcune personcine
13. Recitativo (Delfina) Mentre nessun non viene
14. Recitativo (Doriclea) Da qual fiera tempesta
15. Aria (Doriclea) Astri, oh voi ch'in ciel rotate
16. Aria (Giraldo) Io per me non la so intendere
17. Recitativo (Giraldo) Si duol la mia padrona
18. Recitativo (Celindo, Giraldo) Dove rivolgi si veloce il passo
19. Aria (Fidalbo) Acutissimo è lo stral
20. Recitativo (Fidalbo, Doriclea) Troppo lunga dimora
21. Duetto (Doriclea, Fidalbo) Si raddoppino le piaghe
22. Duetto (Doriclea, Fidalbo) Godi pur mio bene - mia vita
23. Recitativo (Lucinda, Celindo) Troppo incredulo sei
24. ARIA (Celindo) Che pena non dà
25. Aria (Delfina) Vedo certe stravaganze
26. Recitativo (Giraldo,Delfina) Una vecchia
27. Duetto (Giraldo, Delfina) Uomo che vive sol, vive infelice - felice
28. Recitativo (Giraldo) Ma per decider poi questa contesa
29. Aria (Delfina) Fortuna importuna
30. Aria (Doriclea) Hai vinto, Amore, io non fò, più difesa
31. Recitativo (Doriclea, Fidalbo) Come a tempo, Fidalbo, ora a me giungi
32. Duetto (Doriclea, Fidalbo) Men dell'usato aggirisi
33. Recitativo (Celindo) Eguale alla mia fe', candido foglio
34. Recitativo (Giraldo) È divenuta già la notte bruna
35. Aria (Giraldo) Ogn'amante fa l'amore
36. Recitativo (Celindo, Giraldo) Chi canta, olà?
37. Recitativo (Celindo, Doriclea) Fortunato Celindo
38. Recitativo (Lucinda, Giraldo, Fidalbo) Veggio trascorsa l'ora
39. Duetto (Lucinda, Fidalbo) È un laberinto il tuo gran regno, Amore
CD2
01. ATTO SECONDO. Recitativo (Celindo, Doriclea) Così dunque ai miei prieghi
02. Duetto (Doriclea, Celindo) Oh Lucinda - Oh Fidalbo, e dove sei
03. Aria (Delfina) Quanto gracchiar si sente
04. Recitativo (Delfina, Giraldo) Giraldo ecco sen viene
05. Aria (Delfina) Aman sol queste fraschette
06. Recitativo (Fidalbo) Voi, silenzi notturni
07. Aria (Fidalbo) Chi sa dove dimori la beltà?
08. Aria (Lucinda) Voi non piangete, oh stelle, al mio dolore
09. Aria (Lucinda) Chi adoro m'inganna
10. Recitativo (Lucinda, Celindo) Ma vien
11. Aria (Giraldo) Che bella bizzarria
12. Aria (Celindo) Questo è dunque quell'amore
13. Aria (Doriclea) Menzognero fu chi disse
14. Recitativo (Doriclea) Anch'io spiegai con troppo ardore i vanni
15. Recitativo (Fidalbo, Doriclea) De la persa donzella il volgo insano
16. Duetto (Doriclea, Fidalbo) Oh quanto s'inganna
17. Recitativo (Giraldo) Oh come volentieri
18. Aria (Giraldo) Giraldo, Giraldo
19. Recitativo (Giraldo, Delfina) Qua volge il piè Delfina
20. Aria (Giraldo) Questa vale i quattrini
21. Recitativo (Delfina, Giraldo) Sì, sì, ch'io lo dirò
22. Aria (Giraldo) Pigliar moglie, perché goda
23. Recitativo (Delfina, Giraldo) Chi pensa a tante cose
24. Duetto (Delfina, Giraldo) E perché non sono io bella
25. Recitativo (Lucinda, Doriclea 'vestita da uomo sotto nome di Lindoro') T'adorai, mi tradisti
26. Recitativo (Fidalbo, Lindoro) Taccio la fiamma a chi purtroppo adoro
27. Aria (Lindoro) Il seguire il Dio bendato
28. Recitativo (Lindoro) Ma chi vincer desìa l'aspro tenore
29. Recitativo (Delfina, Giraldo) Tanto, tanto sul grande
30. Duetto (Delfina, Giraldo) Pensieri, fuggite - Pensieri, venite
31. Recitativo (Lucinda) Furie, voi ch'agitate
32. Aria (Lucinda) Adorato Lindoro
33. Recitativo (Lucinda,Giraldo) Giraldo, non rispondi
34. Aria (Giraldo) Per gl'amanti Amor non ha legge
35. Aria (Fidalbo) Se negl'eterei campi allenta il morso
36. Aria (Delfina) Tu sempre intento a piangere
37. Recitativo (Delfina, Fidalbo) Or, se da te lontana
38. Duetto (Delfina, Fidalbo) In che dа tanto penare
39. Recitativo (Fidalbo, Lucinda) Qua Lucinda sen viene
40. Duetto (Lucinda, Fidalbo) Nobil alma che la palma
41. Recitativo (Celindo, Lucinda) Se forza ha la costanza
42. Aria (Celindo) Crudelissimi pensieri
43. Recitativo (Celindo) Tutto si cangia alfin, ma il crudo fato
CD3
01. ATTO TERZO. Aria (Giraldo) Guardi il ciel che d'un umore
02. Recitativo (Giraldo) Voi ch'in sen racchiudete
03. Aria (Lucinda) S'amor m'annoda il piede
04. Recitativo (Lucinda, Lindoro) Oh, come amico il fato
05. Duetto (Lindoro, Lucinda) Beltà che alletta
06. Recitativo (Celindo, Giraldo) Ben più di un'aspe sorda
07. Aria (Celindo) Nel mar del mio pianto
08. Recitativo (Lindoro) Vanne, candido foglio, in nere note
09. Recitativo (Lucinda, Fidalbo) Partì Lindoro?
10. Aria (Delfina) Pronta son per far l'amore
11. Recitativo (Giraldo, Delfina) Posso dir ben anch'io
12. Aria (Delfina) Quel cor che non si frange
13. Aria (Giraldo) Della rocca d'un petto
14. Recitativo (Giraldo, Delfina) Io purtroppo m'avveggio
15. Aria (Fidalbo) Sospira, cor mio
16. Recitativo (Fidalbo) E che pretendi Amore
17. Recitativo (Lindoro,Celindo) Con note di diamante
18. Duetto (Lindoro,Celindo) Senza speme un core amante
19. Aria (Lucinda) Spera mio core
20. Recitativo (Lucinda, Lindoro) Ferma, ferma, oh crudele
21. Aria (Lindoro) Mio core a piangere, deh, torna tu
22. Recitativo (Lucinda, Lindoro) Se il troppo amare è fallo
23. Aria (Lucinda) Da un bel ciglio non speri pietà
24. Aria (Giraldo) Come è dolce il far l'amore
25. Recitativo (Giraldo) Purtroppo compatisco
26. Aria (Delfina) Donne mie, non aspettate
27. Recitativo (Giraldo,Delfina) Che miracolo ascolto
28. Recitativo (Delfina) Come è facile oggidì
29. Duetto (Lucinda, Celindo) T'amerei
30. Recitativo (Celindo, Lucinda) Se nel saldo mio petto
31. Aria (Celindo) Oh pupille crudeli, oh stelle ingrate
32. Recitativo (Fidalbo) Lindoro ancor non giunge
33. Aria (Lindoro, Fidalbo) Luci, voi che mirate
34. Recitativo (Celindo, Delfina, Giraldo, Fidalbo, Doriclea) Nel sen di donna imbelle
35. Duetto (Doriclea, Fidalbo) Trionfi Cupido
36. Recitativo (Celindo, Lucinda, Delfina, Giraldo) Odi come il destino
37. Aria (Giraldo) È folle chi crede
38. Duetto (Delfina, Giraldo) Tra i contenti Giraldo è numerato
39. Duetto (Lucinda, Celindo) Quanto godo or che il mio core
40. Coro (Doriclea, Lucinda, Fidalbo, Celindo) Prenda per duce Amore


Exact Audio Copy V1.3 from 2. September 2016

EAC extraction logfile from 23. April 2020, 10:59

Il Pomo d'Oro & Andrea De Carlo / Stradella . La Doriclea . de Carlo

Used drive : HL-DT-STDVD+-RW GT10N Adapter: 1 ID: 1

Read mode : Secure
Utilize accurate stream : Yes
Defeat audio cache : Yes
Make use of C2 pointers : No

Read offset correction : 102
Overread into Lead-In and Lead-Out : No
Fill up missing offset samples with silence : Yes
Delete leading and trailing silent blocks : No
Null samples used in CRC calculations : Yes
Used interface : Native Win32 interface for Win NT & 2000

Used output format : User Defined Encoder
Selected bitrate : 1024 kBit/s
Quality : High
Add ID3 tag : No
Command line compressor : C:\Program Files (x86)\Exact Audio Copy\FLAC\FLAC.EXE
Additional command line options : -6 -V -T "ARTIST=%artist%" -T "TITLE=%title%" -T "ALBUM=%albumtitle%" -T "DATE=%year%" -T "TRACKNUMBER=%tracknr%" -T "GENRE=%genre%" -T "COMMENT=%comment%" -T "BAND=%albuminterpret%" -T "ALBUMARTIST=%albuminterpret%" -T "COMPOSER=%composer%" %haslyrics%–tag-from-file=LYRICS="%lyricsfile%"%haslyrics% -T "DISCNUMBER=%cdnumber%" -T "TOTALDISCS=%totalcds%" -T "TOTALTRACKS=%numtracks%" %hascover%–picture="%coverfile%"%hascover% %source% -o %dest%


TOC of the extracted CD

Track | Start | Length | Start sector | End sector
––––––––––––––––––––––––––––-
1 | 0:00.00 | 1:07.52 | 0 | 5076
2 | 1:07.52 | 0:53.19 | 5077 | 9070
3 | 2:00.71 | 1:41.20 | 9071 | 16665
4 | 3:42.16 | 0:39.67 | 16666 | 19657
5 | 4:22.08 | 1:45.47 | 19658 | 27579
6 | 6:07.55 | 0:43.14 | 27580 | 30818
7 | 6:50.69 | 1:45.72 | 30819 | 38765
8 | 8:36.66 | 2:02.17 | 38766 | 47932
9 | 10:39.08 | 1:24.07 | 47933 | 54239
10 | 12:03.15 | 0:41.52 | 54240 | 57366
11 | 12:44.67 | 0:36.14 | 57367 | 60080
12 | 13:21.06 | 0:52.46 | 60081 | 64026
13 | 14:13.52 | 0:20.00 | 64027 | 65526
14 | 14:33.52 | 2:25.65 | 65527 | 76466
15 | 16:59.42 | 2:20.28 | 76467 | 86994
16 | 19:19.70 | 1:47.51 | 86995 | 95070
17 | 21:07.46 | 0:32.56 | 95071 | 97526
18 | 21:40.27 | 1:34.23 | 97527 | 104599
19 | 23:14.50 | 2:07.57 | 104600 | 114181
20 | 25:22.32 | 1:58.68 | 114182 | 123099
21 | 27:21.25 | 1:19.19 | 123100 | 129043
22 | 28:40.44 | 1:06.48 | 129044 | 134041
23 | 29:47.17 | 2:02.44 | 134042 | 143235
24 | 31:49.61 | 2:24.57 | 143236 | 154092
25 | 34:14.43 | 1:10.22 | 154093 | 159364
26 | 35:24.65 | 2:10.06 | 159365 | 169120
27 | 37:34.71 | 0:47.47 | 169121 | 172692
28 | 38:22.43 | 0:18.21 | 172693 | 174063
29 | 38:40.64 | 1:20.58 | 174064 | 180121
30 | 40:01.47 | 2:07.68 | 180122 | 189714
31 | 42:09.40 | 2:21.24 | 189715 | 200313
32 | 44:30.64 | 2:04.67 | 200314 | 209680
33 | 46:35.56 | 0:55.67 | 209681 | 213872
34 | 47:31.48 | 1:26.02 | 213873 | 220324
35 | 48:57.50 | 3:12.29 | 220325 | 234753
36 | 52:10.04 | 0:48.32 | 234754 | 238385
37 | 52:58.36 | 0:59.65 | 238386 | 242875
38 | 53:58.26 | 3:14.48 | 242876 | 257473
39 | 57:12.74 | 1:30.18 | 257474 | 264241


Range status and errors

Selected range

Filename C:\_RIPs\Stradella . La Doriclea . de Carlo\Stradella-LaDoriclea-deCarlo (CD1).wav

Peak level 78.9 %
Extraction speed 2.0 X
Range quality 99.9 %
Test CRC 636E88E2
Copy CRC 636E88E2
Copy OK

No errors occurred


AccurateRip summary

Track 1 not present in database
Track 2 not present in database
Track 3 not present in database
Track 4 not present in database
Track 5 not present in database
Track 6 not present in database
Track 7 not present in database
Track 8 not present in database
Track 9 not present in database
Track 10 not present in database
Track 11 not present in database
Track 12 not present in database
Track 13 not present in database
Track 14 not present in database
Track 15 accurately ripped (confidence 1) [850E122E] (AR v2)
Track 16 not present in database
Track 17 not present in database
Track 18 not present in database
Track 19 not present in database
Track 20 not present in database
Track 21 not present in database
Track 22 not present in database
Track 23 not present in database
Track 24 not present in database
Track 25 not present in database
Track 26 not present in database
Track 27 not present in database
Track 28 not present in database
Track 29 accurately ripped (confidence 1) [6BF9FF67] (AR v2)
Track 30 accurately ripped (confidence 1) [AEE1CCBF] (AR v2)
Track 31 not present in database
Track 32 not present in database
Track 33 not present in database
Track 34 not present in database
Track 35 not present in database
Track 36 not present in database
Track 37 not present in database
Track 38 not present in database
Track 39 not present in database

3 track(s) accurately ripped
36 track(s) not present in the AccurateRip database

Some tracks could not be verified as accurate

End of status report

–– CUETools DB Plugin V2.1.6

[CTDB TOCID: rKq3scd9SDo2LDug6oCA7Vp5xG4-] found
Submit result: rKq3scd9SDo2LDug6oCA7Vp5xG4- has been confirmed
Track | CTDB Status
1 | (3/3) Accurately ripped
2 | (3/3) Accurately ripped
3 | (3/3) Accurately ripped
4 | (3/3) Accurately ripped
5 | (3/3) Accurately ripped
6 | (3/3) Accurately ripped
7 | (3/3) Accurately ripped
8 | (3/3) Accurately ripped
9 | (3/3) Accurately ripped
10 | (3/3) Accurately ripped
11 | (3/3) Accurately ripped
12 | (3/3) Accurately ripped
13 | (3/3) Accurately ripped
14 | (3/3) Accurately ripped
15 | (3/3) Accurately ripped
16 | (3/3) Accurately ripped
17 | (3/3) Accurately ripped
18 | (3/3) Accurately ripped
19 | (3/3) Accurately ripped
20 | (3/3) Accurately ripped
21 | (3/3) Accurately ripped
22 | (3/3) Accurately ripped
23 | (3/3) Accurately ripped
24 | (3/3) Accurately ripped
25 | (3/3) Accurately ripped
26 | (3/3) Accurately ripped
27 | (3/3) Accurately ripped
28 | (3/3) Accurately ripped
29 | (3/3) Accurately ripped
30 | (3/3) Accurately ripped
31 | (3/3) Accurately ripped
32 | (3/3) Accurately ripped
33 | (3/3) Accurately ripped
34 | (3/3) Accurately ripped
35 | (3/3) Accurately ripped
36 | (3/3) Accurately ripped
37 | (3/3) Accurately ripped
38 | (3/3) Accurately ripped
39 | (3/3) Accurately ripped


==== Log checksum C96719C18133EEC6395BE4409BB5EE48E945B7C4A97C08713E641A21B890CE21 ====


Exact Audio Copy V1.3 from 2. September 2016

EAC extraction logfile from 23. April 2020, 14:24

Il Pomo d'Oro & Andrea De Carlo / Stradella . La Doriclea . de Carlo

Used drive : HL-DT-STDVD+-RW GT10N Adapter: 1 ID: 1

Read mode : Secure
Utilize accurate stream : Yes
Defeat audio cache : Yes
Make use of C2 pointers : No

Read offset correction : 102
Overread into Lead-In and Lead-Out : No
Fill up missing offset samples with silence : Yes
Delete leading and trailing silent blocks : No
Null samples used in CRC calculations : Yes
Used interface : Native Win32 interface for Win NT & 2000

Used output format : User Defined Encoder
Selected bitrate : 1024 kBit/s
Quality : High
Add ID3 tag : No
Command line compressor : C:\Program Files (x86)\Exact Audio Copy\FLAC\FLAC.EXE
Additional command line options : -6 -V -T "ARTIST=%artist%" -T "TITLE=%title%" -T "ALBUM=%albumtitle%" -T "DATE=%year%" -T "TRACKNUMBER=%tracknr%" -T "GENRE=%genre%" -T "COMMENT=%comment%" -T "BAND=%albuminterpret%" -T "ALBUMARTIST=%albuminterpret%" -T "COMPOSER=%composer%" %haslyrics%–tag-from-file=LYRICS="%lyricsfile%"%haslyrics% -T "DISCNUMBER=%cdnumber%" -T "TOTALDISCS=%totalcds%" -T "TOTALTRACKS=%numtracks%" %hascover%–picture="%coverfile%"%hascover% %source% -o %dest%


TOC of the extracted CD

Track | Start | Length | Start sector | End sector
––––––––––––––––––––––––––––-
1 | 0:00.00 | 2:38.07 | 0 | 11856
2 | 2:38.07 | 1:03.46 | 11857 | 16627
3 | 3:41.53 | 0:56.09 | 16628 | 20836
4 | 4:37.62 | 1:52.02 | 20837 | 29238
5 | 6:29.64 | 0:56.30 | 29239 | 33468
6 | 7:26.19 | 1:12.73 | 33469 | 38941
7 | 8:39.17 | 4:11.51 | 38942 | 57817
8 | 12:50.68 | 1:19.46 | 57818 | 63788
9 | 14:10.39 | 0:27.63 | 63789 | 65876
10 | 14:38.27 | 1:08.64 | 65877 | 71040
11 | 15:47.16 | 0:19.62 | 71041 | 72527
12 | 16:07.03 | 1:00.00 | 72528 | 77027
13 | 17:07.03 | 2:05.24 | 77028 | 86426
14 | 19:12.27 | 1:08.37 | 86427 | 91563
15 | 20:20.64 | 4:48.64 | 91564 | 113227
16 | 25:09.53 | 0:52.64 | 113228 | 117191
17 | 26:02.42 | 0:52.38 | 117192 | 121129
18 | 26:55.05 | 2:06.63 | 121130 | 130642
19 | 29:01.68 | 1:13.55 | 130643 | 136172
20 | 30:15.48 | 0:41.12 | 136173 | 139259
21 | 30:56.60 | 0:28.61 | 139260 | 141420
22 | 31:25.46 | 1:26.54 | 141421 | 147924
23 | 32:52.25 | 0:30.25 | 147925 | 150199
24 | 33:22.50 | 0:39.54 | 150200 | 153178
25 | 34:02.29 | 3:27.34 | 153179 | 168737
26 | 37:29.63 | 1:24.10 | 168738 | 175047
27 | 38:53.73 | 2:06.32 | 175048 | 184529
28 | 41:00.30 | 0:46.00 | 184530 | 187979
29 | 41:46.30 | 0:51.54 | 187980 | 191858
30 | 42:38.09 | 0:41.31 | 191859 | 194964
31 | 43:19.40 | 1:33.71 | 194965 | 202010
32 | 44:53.36 | 4:24.70 | 202011 | 221880
33 | 49:18.31 | 0:50.50 | 221881 | 225680
34 | 50:09.06 | 1:34.27 | 225681 | 232757
35 | 51:43.33 | 2:27.70 | 232758 | 243852
36 | 54:11.28 | 1:48.03 | 243853 | 251955
37 | 55:59.31 | 1:11.12 | 251956 | 257292
38 | 57:10.43 | 0:56.50 | 257293 | 261542
39 | 58:07.18 | 1:57.68 | 261543 | 270385
40 | 60:05.11 | 1:48.37 | 270386 | 278522
41 | 61:53.48 | 1:20.11 | 278523 | 284533
42 | 63:13.59 | 4:25.17 | 284534 | 304425
43 | 67:39.01 | 0:49.61 | 304426 | 308161


Range status and errors

Selected range

Filename C:\_RIPs\Stradella . La Doriclea . de Carlo\Stradella-LaDoriclea-deCarlo (CD2).wav

Peak level 89.5 %
Extraction speed 2.1 X
Range quality 99.9 %
Test CRC D7E174A3
Copy CRC D7E174A3
Copy OK

No errors occurred


AccurateRip summary

Track 1 not present in database
Track 2 not present in database
Track 3 accurately ripped (confidence 1) [05607665] (AR v2)
Track 4 not present in database
Track 5 not present in database
Track 6 not present in database
Track 7 not present in database
Track 8 accurately ripped (confidence 1) [59F22A6B] (AR v2)
Track 9 not present in database
Track 10 not present in database
Track 11 not present in database
Track 12 accurately ripped (confidence 1) [F29BFBC1] (AR v2)
Track 13 not present in database
Track 14 not present in database
Track 15 accurately ripped (confidence 1) [EF7F4B4E] (AR v2)
Track 16 not present in database
Track 17 not present in database
Track 18 not present in database
Track 19 not present in database
Track 20 not present in database
Track 21 not present in database
Track 22 accurately ripped (confidence 1) [B78539B0] (AR v2)
Track 23 not present in database
Track 24 not present in database
Track 25 not present in database
Track 26 not present in database
Track 27 accurately ripped (confidence 1) [E9770994] (AR v2)
Track 28 not present in database
Track 29 not present in database
Track 30 not present in database
Track 31 not present in database
Track 32 accurately ripped (confidence 1) [DBD0CA0B] (AR v2)
Track 33 not present in database
Track 34 accurately ripped (confidence 1) [A99A6124] (AR v2)
Track 35 accurately ripped (confidence 1) [A6B94CAE] (AR v2)
Track 36 not present in database
Track 37 not present in database
Track 38 not present in database
Track 39 not present in database
Track 40 accurately ripped (confidence 1) [AC90ED66] (AR v2)
Track 41 not present in database
Track 42 accurately ripped (confidence 1) [95043B6C] (AR v2)
Track 43 not present in database

11 track(s) accurately ripped
32 track(s) not present in the AccurateRip database

Some tracks could not be verified as accurate

End of status report

–– CUETools DB Plugin V2.1.6

[CTDB TOCID: 9EsbhmQ_IcyjXUcmY2fu_YfxZA8-] found
Submit result: 9EsbhmQ_IcyjXUcmY2fu_YfxZA8- has been confirmed
Track | CTDB Status
1 | (3/3) Accurately ripped
2 | (3/3) Accurately ripped
3 | (3/3) Accurately ripped
4 | (3/3) Accurately ripped
5 | (3/3) Accurately ripped
6 | (3/3) Accurately ripped
7 | (3/3) Accurately ripped
8 | (3/3) Accurately ripped
9 | (3/3) Accurately ripped
10 | (3/3) Accurately ripped
11 | (3/3) Accurately ripped
12 | (3/3) Accurately ripped
13 | (3/3) Accurately ripped
14 | (3/3) Accurately ripped
15 | (3/3) Accurately ripped
16 | (3/3) Accurately ripped
17 | (3/3) Accurately ripped
18 | (3/3) Accurately ripped
19 | (3/3) Accurately ripped
20 | (3/3) Accurately ripped
21 | (3/3) Accurately ripped
22 | (3/3) Accurately ripped
23 | (3/3) Accurately ripped
24 | (3/3) Accurately ripped
25 | (3/3) Accurately ripped
26 | (3/3) Accurately ripped
27 | (3/3) Accurately ripped
28 | (3/3) Accurately ripped
29 | (3/3) Accurately ripped
30 | (3/3) Accurately ripped
31 | (3/3) Accurately ripped
32 | (3/3) Accurately ripped
33 | (3/3) Accurately ripped
34 | (3/3) Accurately ripped
35 | (3/3) Accurately ripped
36 | (3/3) Accurately ripped
37 | (3/3) Accurately ripped
38 | (3/3) Accurately ripped
39 | (3/3) Accurately ripped
40 | (3/3) Accurately ripped
41 | (3/3) Accurately ripped
42 | (3/3) Accurately ripped
43 | (3/3) Accurately ripped


==== Log checksum 1F0C85C093A0454730531D953DDF97C2C78983C4706D55D717329A92F3ED6345 ====


Exact Audio Copy V1.3 from 2. September 2016

EAC extraction logfile from 23. April 2020, 17:41

Il Pomo d'Oro & Andrea De Carlo / Stradella . La Doriclea . de Carlo

Used drive : HL-DT-STDVD+-RW GT10N Adapter: 1 ID: 1

Read mode : Secure
Utilize accurate stream : Yes
Defeat audio cache : Yes
Make use of C2 pointers : No

Read offset correction : 102
Overread into Lead-In and Lead-Out : No
Fill up missing offset samples with silence : Yes
Delete leading and trailing silent blocks : No
Null samples used in CRC calculations : Yes
Used interface : Native Win32 interface for Win NT & 2000

Used output format : User Defined Encoder
Selected bitrate : 1024 kBit/s
Quality : High
Add ID3 tag : No
Command line compressor : C:\Program Files (x86)\Exact Audio Copy\FLAC\FLAC.EXE
Additional command line options : -6 -V -T "ARTIST=%artist%" -T "TITLE=%title%" -T "ALBUM=%albumtitle%" -T "DATE=%year%" -T "TRACKNUMBER=%tracknr%" -T "GENRE=%genre%" -T "COMMENT=%comment%" -T "BAND=%albuminterpret%" -T "ALBUMARTIST=%albuminterpret%" -T "COMPOSER=%composer%" %haslyrics%–tag-from-file=LYRICS="%lyricsfile%"%haslyrics% -T "DISCNUMBER=%cdnumber%" -T "TOTALDISCS=%totalcds%" -T "TOTALTRACKS=%numtracks%" %hascover%–picture="%coverfile%"%hascover% %source% -o %dest%


TOC of the extracted CD

Track | Start | Length | Start sector | End sector
––––––––––––––––––––––––––––-
1 | 0:00.00 | 1:59.28 | 0 | 8952
2 | 1:59.28 | 1:02.21 | 8953 | 13623
3 | 3:01.49 | 1:56.25 | 13624 | 22348
4 | 4:57.74 | 1:42.50 | 22349 | 30048
5 | 6:40.49 | 2:45.03 | 30049 | 42426
6 | 9:25.52 | 1:24.32 | 42427 | 48758
7 | 10:50.09 | 1:55.37 | 48759 | 57420
8 | 12:45.46 | 0:41.14 | 57421 | 60509
9 | 13:26.60 | 3:08.44 | 60510 | 74653
10 | 16:35.29 | 1:13.43 | 74654 | 80171
11 | 17:48.72 | 1:14.01 | 80172 | 85722
12 | 19:02.73 | 1:13.13 | 85723 | 91210
13 | 20:16.11 | 0:31.27 | 91211 | 93562
14 | 20:47.38 | 0:35.61 | 93563 | 96248
15 | 21:23.24 | 3:10.10 | 96249 | 110508
16 | 24:33.34 | 1:09.72 | 110509 | 115755
17 | 25:43.31 | 2:12.40 | 115756 | 125695
18 | 27:55.71 | 1:20.51 | 125696 | 131746
19 | 29:16.47 | 1:39.28 | 131747 | 139199
20 | 30:56.00 | 0:58.31 | 139200 | 143580
21 | 31:54.31 | 2:00.23 | 143581 | 152603
22 | 33:54.54 | 1:57.35 | 152604 | 161413
23 | 35:52.14 | 2:28.16 | 161414 | 172529
24 | 38:20.30 | 1:25.38 | 172530 | 178942
25 | 39:45.68 | 0:25.38 | 178943 | 180855
26 | 40:11.31 | 0:43.53 | 180856 | 184133
27 | 40:55.09 | 1:42.17 | 184134 | 191800
28 | 42:37.26 | 1:08.25 | 191801 | 196925
29 | 43:45.51 | 0:54.51 | 196926 | 201026
30 | 44:40.27 | 1:05.18 | 201027 | 205919
31 | 45:45.45 | 3:13.55 | 205920 | 220449
32 | 48:59.25 | 0:56.09 | 220450 | 224658
33 | 49:55.34 | 2:25.15 | 224659 | 235548
34 | 52:20.49 | 3:16.73 | 235549 | 250321
35 | 55:37.47 | 0:30.03 | 250322 | 252574
36 | 56:07.50 | 1:44.18 | 252575 | 260392
37 | 57:51.68 | 1:08.38 | 260393 | 265530
38 | 59:00.31 | 0:27.57 | 265531 | 267612
39 | 59:28.13 | 0:42.36 | 267613 | 270798
40 | 60:10.49 | 1:01.32 | 270799 | 275405


Range status and errors

Selected range

Filename C:\_RIPs\Stradella . La Doriclea . de Carlo\Stradella-LaDoriclea-deCarlo (CD3).wav

Peak level 87.9 %
Extraction speed 2.0 X
Range quality 99.9 %
Test CRC 817BBA3B
Copy CRC 817BBA3B
Copy OK

No errors occurred


AccurateRip summary

Track 1 accurately ripped (confidence 1) [34DFFF5C] (AR v2)
Track 2 accurately ripped (confidence 1) [75BC1728] (AR v2)
Track 3 accurately ripped (confidence 1) [6063C121] (AR v2)
Track 4 not present in database
Track 5 accurately ripped (confidence 1) [C915C664] (AR v2)
Track 6 not present in database
Track 7 accurately ripped (confidence 1) [E0EC2DCF] (AR v2)
Track 8 not present in database
Track 9 accurately ripped (confidence 1) [5C00D49E] (AR v2)
Track 10 accurately ripped (confidence 1) [9E6EA400] (AR v2)
Track 11 accurately ripped (confidence 1) [A7EF7F2F] (AR v2)
Track 12 accurately ripped (confidence 1) [FF1C25AD] (AR v2)
Track 13 accurately ripped (confidence 1) [7DC3F76F] (AR v2)
Track 14 accurately ripped (confidence 1) [18DEA9B7] (AR v2)
Track 15 accurately ripped (confidence 1) [5571EC30] (AR v2)
Track 16 accurately ripped (confidence 1) [24C95CAE] (AR v2)
Track 17 not present in database
Track 18 accurately ripped (confidence 1) [1C0A54E3] (AR v2)
Track 19 accurately ripped (confidence 1) [ABD16E04] (AR v2)
Track 20 not present in database
Track 21 accurately ripped (confidence 1) [869AF9FA] (AR v2)
Track 22 not present in database
Track 23 accurately ripped (confidence 1) [6012BC71] (AR v2)
Track 24 accurately ripped (confidence 1) [39DF5096] (AR v2)
Track 25 not present in database
Track 26 accurately ripped (confidence 1) [A055EDAC] (AR v2)
Track 27 accurately ripped (confidence 1) [31B93F6B] (AR v2)
Track 28 accurately ripped (confidence 1) [9CFF9DDA] (AR v2)
Track 29 accurately ripped (confidence 1) [93F1E0B3] (AR v2)
Track 30 accurately ripped (confidence 1) [A67D6593] (AR v2)
Track 31 accurately ripped (confidence 1) [10453414] (AR v2)
Track 32 not present in database
Track 33 accurately ripped (confidence 1) [148DFB17] (AR v2)
Track 34 not present in database
Track 35 accurately ripped (confidence 1) [23F291B0] (AR v2)
Track 36 accurately ripped (confidence 1) [74824C1D] (AR v2)
Track 37 accurately ripped (confidence 1) [7A6B5E2F] (AR v2)
Track 38 accurately ripped (confidence 1) [1A499152] (AR v2)
Track 39 accurately ripped (confidence 1) [7B7FC16C] (AR v2)
Track 40 accurately ripped (confidence 1) [0AE49FDE] (AR v2)

31 track(s) accurately ripped
9 track(s) not present in the AccurateRip database

Some tracks could not be verified as accurate

End of status report

–– CUETools DB Plugin V2.1.6

[CTDB TOCID: u_Gk5mOmuapnDRaz14bXthJA1QY-] found
Submit result: u_Gk5mOmuapnDRaz14bXthJA1QY- has been confirmed
Track | CTDB Status
1 | (3/3) Accurately ripped
2 | (3/3) Accurately ripped
3 | (3/3) Accurately ripped
4 | (3/3) Accurately ripped
5 | (3/3) Accurately ripped
6 | (3/3) Accurately ripped
7 | (3/3) Accurately ripped
8 | (3/3) Accurately ripped
9 | (3/3) Accurately ripped
10 | (3/3) Accurately ripped
11 | (3/3) Accurately ripped
12 | (3/3) Accurately ripped
13 | (3/3) Accurately ripped
14 | (3/3) Accurately ripped
15 | (3/3) Accurately ripped
16 | (3/3) Accurately ripped
17 | (3/3) Accurately ripped
18 | (3/3) Accurately ripped
19 | (3/3) Accurately ripped
20 | (3/3) Accurately ripped
21 | (3/3) Accurately ripped
22 | (3/3) Accurately ripped
23 | (3/3) Accurately ripped
24 | (3/3) Accurately ripped
25 | (3/3) Accurately ripped
26 | (3/3) Accurately ripped
27 | (3/3) Accurately ripped
28 | (3/3) Accurately ripped
29 | (3/3) Accurately ripped
30 | (3/3) Accurately ripped
31 | (3/3) Accurately ripped
32 | (3/3) Accurately ripped
33 | (3/3) Accurately ripped
34 | (3/3) Accurately ripped
35 | (3/3) Accurately ripped
36 | (3/3) Accurately ripped
37 | (3/3) Accurately ripped
38 | (3/3) Accurately ripped
39 | (3/3) Accurately ripped
40 | (3/3) Accurately ripped


==== Log checksum 9073C0274A0C407FAF9C493E1E07F4ED13FA977B001AFCF3A32946110E0DC513 ====

Andrea De Carlo, Il Pomod'Oro - Alessandro Stradella: La Doriclea (2018)

Thanks to the original releaser