Subcategories

Andrew Stockdale - Keep Moving (2013)

Posted By: v3122
Andrew Stockdale - Keep Moving (2013)

Andrew Stockdale - Keep Moving (2013)
EAC | Flac(Image) + Cue + Log & MP3 CBR 320Kbps
Universal Music, 3737878 | ~ 545 or 176 Mb | Scans(jpg) -> 20 Mb
Hard Rock, Blues Rock

Wolfmother fans must have feared the worst these past few years. Some time after the release of second album, Cosmic Egg, – lead album in these pages in October 2009, and a Top 20 hit in the US – the Brisbane four-piece went ominously quiet. Had they split? Were they on hiatus? Eventually, in March 2011, word spread that they were back in the studio working on a follow-up. Then it all went quiet again.

Only recently has it emerged that, for the time being at least, Wolfmother are no more. Sessions for the third album have instead been appropriated for a solo project by band leader Andrew Stockdale. Not that this is any great shock in itself. Since their inception in 2000, Wolfmother have essentially served as a vehicle for Stockdale, the band’s singer, songwriter and lead guitarist.

And so Keep Moving is pretty much what you might expect: unreconstructed rock’n’roll with thumping great riffs and oodles of crunch. As with Cosmic Egg, there’s a clear debt to Zeppelin, Sabbath and Cream in his attack, albeit glazed with a thin coat of psychedelia. If it ain’t broke… Stockdale calls it “old-school, new-school, up-tempo boogie rock”. And while he probably won’t win any prizes for lyrical profundity, there are plenty of allusions to leaving things behind, heading for fresh pasture with no looking back.

He recently admitted wishing he’d ditched the Wolfmother name after the first personnel shake-up in 2008, and done what he’s doing now: flying alone with the help of a bunch of highly capable session players. His newfound freedom shows, too. The key difference is a broader palette of colours, supplementing the metallic fizz of hard-driving songs like Somebody’s Calling and Of The Earth (a stadium humper of truly Zeppish proportions) with the ringing electric folk of Suitcase (One More Time) or the stringy acoustic stomp of Black Swan.

Bassist Ian Peres remains from the last Wolfmother line-up, joined here by no less than four drummers, two guitarists (one being Mourning Tide’s Vin Steele), a keyboard player and a flugelhorn player. It’s an elastic set-up that mirrors Stockdale’s carte-blanche approach to this album.

These are songs ripped from the roots of classic 70s rock, but delivered with such verve and unfettered joy that it goes way beyond any studied retro nonsense. This is very now. And very Andrew Stockdale.

~ teamrock.com
Andrew Stockdale - Keep Moving (2013):

Andrew Stockdale - Keep Moving (2013)

Tracklist:

01. Long Way To Go 04:48
02. Keep Moving 03:01
03. Somebody’s Calling 03:48
04. Vigarious 04:47
05. Year Of The Dragon 04:48
06. Meridian 04:58
07. Ghetto 05:24
08. Suitcase (One More Time) 05:15
09. Of The Earth 04:19
10. Let It Go 04:49
11. Let Somebody Love You 03:15
12. She’s A Motorhead 03:44
13. Standing On The Corner 02:47
14. Country 03:47
15. Black Swan 04:21
16. Everyday Drone 04:45
17. It Occured To Me 04:14

Exact Audio Copy V1.0 beta 3 from 29. August 2011

EAC extraction logfile from 5. January 2014, 19:10

Andrew Stockdale / Keep Moving

Used drive : Optiarc DVD RW AD-5280S Adapter: 2 ID: 2

Read mode : Secure
Utilize accurate stream : Yes
Defeat audio cache : Yes
Make use of C2 pointers : No

Read offset correction : 48
Overread into Lead-In and Lead-Out : No
Fill up missing offset samples with silence : Yes
Delete leading and trailing silent blocks : No
Null samples used in CRC calculations : Yes
Used interface : Installed external ASPI interface

Used output format : User Defined Encoder
Selected bitrate : 768 kBit/s
Quality : High
Add ID3 tag : No
Command line compressor : F:\Program Files\Exact Audio Copy\Flac\flac.exe
Additional command line options : -V -8 -T "Date=%year%" -T "Genre=%genre%" %source%


TOC of the extracted CD

Track | Start | Length | Start sector | End sector
––––––––––––––––––––––––––––-
1 | 0:00.00 | 4:48.05 | 0 | 21604
2 | 4:48.05 | 3:01.18 | 21605 | 35197
3 | 7:49.23 | 3:48.31 | 35198 | 52328
4 | 11:37.54 | 4:47.25 | 52329 | 73878
5 | 16:25.04 | 4:49.17 | 73879 | 95570
6 | 21:14.21 | 4:58.68 | 95571 | 117988
7 | 26:13.14 | 5:24.74 | 117989 | 142362
8 | 31:38.13 | 5:15.58 | 142363 | 166045
9 | 36:53.71 | 4:19.62 | 166046 | 185532
10 | 41:13.58 | 4:49.23 | 185533 | 207230
11 | 46:03.06 | 3:15.39 | 207231 | 221894
12 | 49:18.45 | 3:44.02 | 221895 | 238696
13 | 53:02.47 | 2:47.72 | 238697 | 251293
14 | 55:50.44 | 3:47.19 | 251294 | 268337
15 | 59:37.63 | 4:21.33 | 268338 | 287945
16 | 63:59.21 | 4:45.52 | 287946 | 309372
17 | 68:44.73 | 4:14.71 | 309373 | 328493


Range status and errors

Selected range

Filename D:\Sket4er\Andrew Stockdale - Keep Moving 2013 [flac]\Andrew Stockdale - Keep Moving.wav

Peak level 100.0 %
Extraction speed 4.4 X
Range quality 100.0 %
Test CRC BAB61B93
Copy CRC BAB61B93
Copy OK

No errors occurred


AccurateRip summary

Track 1 cannot be verified as accurate (confidence 7) [DB0B4C9F], AccurateRip returned [76551EAB] (AR v2)
Track 2 cannot be verified as accurate (confidence 7) [9569B271], AccurateRip returned [8C394D00] (AR v2)
Track 3 cannot be verified as accurate (confidence 7) [17849423], AccurateRip returned [D4229CE6] (AR v2)
Track 4 cannot be verified as accurate (confidence 7) [D074EB7B], AccurateRip returned [F0CF28C7] (AR v2)
Track 5 cannot be verified as accurate (confidence 7) [FB7574E0], AccurateRip returned [6284E84C] (AR v2)
Track 6 cannot be verified as accurate (confidence 7) [0ED6D9C2], AccurateRip returned [FC3ABDE2] (AR v2)
Track 7 cannot be verified as accurate (confidence 7) [4626AA18], AccurateRip returned [0AE9DB05] (AR v2)
Track 8 cannot be verified as accurate (confidence 7) [B1B44E66], AccurateRip returned [4AA543F7] (AR v2)
Track 9 cannot be verified as accurate (confidence 7) [C39F9F28], AccurateRip returned [A6C51D6B] (AR v2)
Track 10 cannot be verified as accurate (confidence 7) [47A2AC40], AccurateRip returned [28A6F382] (AR v2)
Track 11 cannot be verified as accurate (confidence 7) [F2D74524], AccurateRip returned [F26A27CC] (AR v2)
Track 12 cannot be verified as accurate (confidence 7) [1D9C6F9E], AccurateRip returned [3B32F76B] (AR v2)
Track 13 cannot be verified as accurate (confidence 7) [03D91B13], AccurateRip returned [AF35648B] (AR v2)
Track 14 cannot be verified as accurate (confidence 7) [71B9AA54], AccurateRip returned [B889B7A3] (AR v2)
Track 15 cannot be verified as accurate (confidence 7) [B13E1B45], AccurateRip returned [80AA76E6] (AR v2)
Track 16 cannot be verified as accurate (confidence 7) [84B901CD], AccurateRip returned [64D7E597] (AR v2)
Track 17 cannot be verified as accurate (confidence 7) [199B3B98], AccurateRip returned [C9920FB3] (AR v2)

No tracks could be verified as accurate
You may have a different pressing from the one(s) in the database

End of status report

==== Log checksum FA4E356815744F796903606F164AA0B8D077121264A9348ED2FD72D7D60799B4 ====


[CUETools log; Date: 02.02.2018 19:04:26; Version: 2.1.5]
[AccurateRip ID: 002dd585-024394b2-09111b11] found.
Track [ CRC | V2 ] Status
01 [7069a447|db0b4c9f] (00+00/27) No match
02 [aae2dce3|9569b271] (00+00/26) No match
03 [7796c810|17849423] (00+00/27) No match
04 [6a22b791|d074eb7b] (00+00/27) No match
05 [e6a09fad|fb7574e0] (00+00/27) No match
06 [69ffae2e|0ed6d9c2] (00+00/27) No match
07 [77be0fc7|4626aa18] (00+00/27) No match
08 [519a6fd5|b1b44e66] (00+00/27) No match
09 [f1405d41|c39f9f28] (00+00/27) No match
10 [c7e03244|47a2ac40] (00+00/27) No match
11 [6c417582|f2d74524] (00+00/27) No match
12 [6c4b9fba|1d9c6f9e] (00+00/27) No match
13 [c74ebff4|03d91b13] (00+00/27) No match
14 [d726b396|71b9aa54] (00+00/27) No match
15 [b421e2bd|b13e1b45] (00+00/27) No match
16 [8fed45a5|84b901cd] (00+00/27) No match
17 [7e367408|199b3b98] (00+00/27) No match
Offsetted by 6:
01 [0df50a48] (02/27) Accurately ripped
02 [a320d300] (02/26) Accurately ripped
03 [35fdfa2f] (02/27) Accurately ripped
04 [8cc30e58] (02/27) Accurately ripped
05 [4ff73de8] (02/27) Accurately ripped
06 [55042bd6] (02/27) Accurately ripped
07 [3f160692] (02/27) Accurately ripped
08 [e8081aae] (02/27) Accurately ripped
09 [d6728863] (02/27) Accurately ripped
10 [ab2d5657] (02/27) Accurately ripped
11 [6cdca913] (02/27) Accurately ripped
12 [881e1e5a] (02/27) Accurately ripped
13 [71558af6] (02/27) Accurately ripped
14 [1fc25d82] (02/27) Accurately ripped
15 [859bd6f2] (02/27) Accurately ripped
16 [6dcd217d] (02/27) Accurately ripped
17 [30326100] (02/27) Accurately ripped
Offsetted by -640:
01 [004245b4] (00/27) No match (V2 was not tested)
02 [ec346347] (00/26) No match (V2 was not tested)
03 [247bb231] (00/27) No match (V2 was not tested)
04 [05d0e511] (00/27) No match (V2 was not tested)
05 [f29ee89d] (00/27) No match (V2 was not tested)
06 [6fde7622] (00/27) No match (V2 was not tested)
07 [50d5fd33] (00/27) No match (V2 was not tested)
08 [9f4ea8d9] (00/27) No match (V2 was not tested)
09 [031f8772] (00/27) No match (V2 was not tested)
10 [4a0a38ef] (00/27) No match (V2 was not tested)
11 [471a4619] (00/27) No match (V2 was not tested)
12 [1d64c27a] (00/27) No match (V2 was not tested)
13 [a1d5e655] (00/27) No match (V2 was not tested)
14 [7117aeef] (00/27) No match (V2 was not tested)
15 [e9a5e6d8] (00/27) No match (V2 was not tested)
16 [f8f8aba5] (00/27) No match (V2 was not tested)
17 [05cf6208] (00/27) No match (V2 was not tested)

Track Peak [ CRC32 ] [W/O NULL] [ LOG ]
– 100,0 [BAB61B93] [785EC886] CRC32
01 98,9 [A82A58E9] [AFD8D6D8]
02 99,1 [8F7CEF0A] [17E7510E]
03 98,4 [D22AF43C] [BCE1F46C]
04 99,3 [9DB3385A] [E0230AE0]
05 98,3 [EA1BD512] [F6DC5CC6]
06 99,8 [0EB341DA] [78378FE4]
07 98,1 [1F265A19] [BCDE02DB]
08 99,6 [54C65A77] [57725FBE]
09 98,2 [6F04FEE9] [83E91015]
10 98,4 [C093C223] [B81D5590]
11 99,5 [E9D59CD4] [70B104EE]
12 99,5 [EA9B1121] [64CE1408]
13 98,2 [A7518FF5] [E3FFD066]
14 99,2 [482814F0] [BD39400C]
15 100,0 [1B75DDA8] [FFEEA75D]
16 99,5 [195D42E8] [2338D930]
17 98,5 [3EC9A328] [E1357710]


Andrew Stockdale - Keep Moving (2013)

All thanks go to the original releaser

Download Andrew Stockdale - Keep Moving (2013):