Subcategories

Andrew Lawrence-King, The Harp Consort - Spanish Gypsies: Celtic and Spanish music in Shakespeare's England (2013)

Posted By: ArlegZ
Andrew Lawrence-King, The Harp Consort - Spanish Gypsies: Celtic and Spanish music in Shakespeare's England (2013)

Andrew Lawrence-King, The Harp Consort - Spanish Gypsies: Celtic and Spanish music in Shakespeare's England (2013)
EAC | FLAC | Image (Cue & Log) ~ 369 Mb | Total time: 71:12 | Scans included
Classical | Label: Deutsche Harmonia Mundi | 88883754552 | Recorded: 1999

The music of Shakespeare's England - ballad tunes, country dances and elegant consorts - seems at first to be quintessentially English. Yet many of these tunes, as popular dances or in the high-art variations of division music, were inspired by Celtic and Spanish styles. In variations, from 17th-century manuscripts and in improvised divisions, 'gypsy' ballads are metamorphosed into exquisite consort music.

Performer:
The Harp Consort
Andrew Lawrence-King, director

Track List:
John Playford (1623-1686)
01. Scotch Cap
Anonymous
02. The Gypsy Lilt
John Playford
03. The Spanish Jepsies
04. A new Scotch Jig
Anonymous
05. The Irish Ho-Hoane
John Playford
06. An Ayre called Corke
07. Sarabande to Corke
Tobias Hume (c1579-1645)
08. A Spanish humor
Anthony Holborne (c1545-1602)
09. Muy Linda
Anonymous
10. Gregory Walker: Quadran Pavan
11. Gregory Walker: Buffins
12. Gregory Walker: Hey de Gie
13. Trenchmore
Giles Farnaby (c1563-1640)
14. Spagnioletta
Anonymous
15. Rownde Scottishe tune
John Playford
16. The Wherligig
Giles Farnaby
17. Mal Sims
John Playford
18. Pakingtons Pond
19. Punks Delight
20. Lull me beyond thee
Anonymous
21. Lady Louthians Lilt
Robert Johnson (c1583-1633)
22. The Gypsies Sond
William Byrd (1543-1623)
23. Gipseis Round


Exact Audio Copy V1.3 from 2. September 2016

EAC extraction logfile from 13. November 2019, 7:04

The Harp Consort / Spanish Gypsies

Used drive : HL-DT-STBD-RE WH16NS40 Adapter: 1 ID: 0

Read mode : Secure
Utilize accurate stream : Yes
Defeat audio cache : Yes
Make use of C2 pointers : No

Read offset correction : 6
Overread into Lead-In and Lead-Out : No
Fill up missing offset samples with silence : Yes
Delete leading and trailing silent blocks : No
Null samples used in CRC calculations : Yes
Used interface : Native Win32 interface for Win NT & 2000

Used output format : User Defined Encoder
Selected bitrate : 1024 kBit/s
Quality : High
Add ID3 tag : No
Command line compressor : C:\Program Files (x86)\Exact Audio Copy\FLAC\FLAC.EXE
Additional command line options : -6 -V -T "ARTIST=%artist%" -T "TITLE=%title%" -T "ALBUM=%albumtitle%" -T "DATE=%year%" -T "TRACKNUMBER=%tracknr%" -T "GENRE=%genre%" -T "COMMENT=%comment%" -T "BAND=%albuminterpret%" -T "ALBUMARTIST=%albuminterpret%" -T "COMPOSER=%composer%" %haslyrics%–tag-from-file=LYRICS="%lyricsfile%"%haslyrics% -T "DISCNUMBER=%cdnumber%" -T "TOTALDISCS=%totalcds%" -T "TOTALTRACKS=%numtracks%" %hascover%–picture="%coverfile%"%hascover% %source% -o %dest%


TOC of the extracted CD

Track | Start | Length | Start sector | End sector
––––––––––––––––––––––––––––-
1 | 0:00.00 | 2:50.44 | 0 | 12793
2 | 2:50.44 | 2:10.47 | 12794 | 22590
3 | 5:01.16 | 4:29.00 | 22591 | 42765
4 | 9:30.16 | 3:06.27 | 42766 | 56742
5 | 12:36.43 | 5:22.38 | 56743 | 80930
6 | 17:59.06 | 1:59.02 | 80931 | 89857
7 | 19:58.08 | 0:48.46 | 89858 | 93503
8 | 20:46.54 | 4:12.29 | 93504 | 112432
9 | 24:59.08 | 1:30.14 | 112433 | 119196
10 | 26:29.22 | 1:26.27 | 119197 | 125673
11 | 27:55.49 | 1:11.07 | 125674 | 131005
12 | 29:06.56 | 1:17.04 | 131006 | 136784
13 | 30:23.60 | 2:57.68 | 136785 | 150127
14 | 33:21.53 | 2:45.59 | 150128 | 162561
15 | 36:07.37 | 5:02.02 | 162562 | 185213
16 | 41:09.39 | 2:04.50 | 185214 | 194563
17 | 43:14.14 | 2:47.72 | 194564 | 207160
18 | 46:02.11 | 3:16.24 | 207161 | 221884
19 | 49:18.35 | 2:16.64 | 221885 | 232148
20 | 51:35.24 | 3:22.12 | 232149 | 247310
21 | 54:57.36 | 8:58.11 | 247311 | 287671
22 | 63:55.47 | 1:34.14 | 287672 | 294735
23 | 65:29.61 | 5:40.52 | 294736 | 320287


Range status and errors

Selected range

Filename C:\Users\Grant\Desktop\The Harp Consort - Spanish Gypsies.wav

Peak level 98.7 %
Extraction speed 8.5 X
Range quality 99.9 %
Test CRC 7B351795
Copy CRC 7B351795
Copy OK

No errors occurred


AccurateRip summary

Track 1 cannot be verified as accurate (confidence 12) [BB08D357], AccurateRip returned [1185F235] (AR v2)
Track 2 cannot be verified as accurate (confidence 12) [888E7E5D], AccurateRip returned [97C938DD] (AR v2)
Track 3 cannot be verified as accurate (confidence 12) [D7242472], AccurateRip returned [81DC98C3] (AR v2)
Track 4 cannot be verified as accurate (confidence 12) [1D23492B], AccurateRip returned [38F2FB15] (AR v2)
Track 5 cannot be verified as accurate (confidence 12) [FA13EB7D], AccurateRip returned [4F1F6DCE] (AR v2)
Track 6 cannot be verified as accurate (confidence 12) [6D8AC250], AccurateRip returned [9A8D1D35] (AR v2)
Track 7 cannot be verified as accurate (confidence 12) [BA51FB5F], AccurateRip returned [02070C35] (AR v2)
Track 8 cannot be verified as accurate (confidence 12) [4B465957], AccurateRip returned [1258059D] (AR v2)
Track 9 cannot be verified as accurate (confidence 12) [02F5F38B], AccurateRip returned [1E28E6E8] (AR v2)
Track 10 cannot be verified as accurate (confidence 12) [4B2F9DB4], AccurateRip returned [8A94795B] (AR v2)
Track 11 cannot be verified as accurate (confidence 12) [705795D4], AccurateRip returned [33E8933B] (AR v2)
Track 12 cannot be verified as accurate (confidence 12) [0742E6BD], AccurateRip returned [A08ECB22] (AR v2)
Track 13 cannot be verified as accurate (confidence 12) [B8C3C07A], AccurateRip returned [4A5D1BC8] (AR v2)
Track 14 cannot be verified as accurate (confidence 12) [F5828E7C], AccurateRip returned [532F2A05] (AR v2)
Track 15 cannot be verified as accurate (confidence 12) [5263C5BC], AccurateRip returned [B487EDD7] (AR v2)
Track 16 cannot be verified as accurate (confidence 12) [FC279B8A], AccurateRip returned [D918327F] (AR v2)
Track 17 cannot be verified as accurate (confidence 12) [6B622DAF], AccurateRip returned [E959CBA6] (AR v2)
Track 18 cannot be verified as accurate (confidence 12) [5FAB9376], AccurateRip returned [D9BF4015] (AR v2)
Track 19 cannot be verified as accurate (confidence 12) [9B8B09CF], AccurateRip returned [57C1AAED] (AR v2)
Track 20 cannot be verified as accurate (confidence 12) [C982D4C6], AccurateRip returned [9B845A41] (AR v2)
Track 21 cannot be verified as accurate (confidence 12) [0F2A0E07], AccurateRip returned [D697F0CD] (AR v2)
Track 22 cannot be verified as accurate (confidence 12) [61E925D9], AccurateRip returned [AC09D0EC] (AR v2)
Track 23 cannot be verified as accurate (confidence 12) [448E4E65], AccurateRip returned [613CB02A] (AR v2)

No tracks could be verified as accurate
You may have a different pressing from the one(s) in the database

End of status report

–– CUETools DB Plugin V2.1.6

[CTDB TOCID: R5_6BElh7GPYp6.gO1ViEzX8nwQ-] found
Submit result: R5_6BElh7GPYp6.gO1ViEzX8nwQ- has been confirmed
Track | CTDB Status
1 | (29/30) Accurately ripped
2 | (30/30) Accurately ripped
3 | (30/30) Accurately ripped
4 | (30/30) Accurately ripped
5 | (30/30) Accurately ripped
6 | (30/30) Accurately ripped
7 | (30/30) Accurately ripped
8 | (29/30) Accurately ripped
9 | (30/30) Accurately ripped
10 | (30/30) Accurately ripped
11 | (30/30) Accurately ripped
12 | (30/30) Accurately ripped
13 | (30/30) Accurately ripped
14 | (30/30) Accurately ripped
15 | (30/30) Accurately ripped
16 | (30/30) Accurately ripped
17 | (30/30) Accurately ripped
18 | (30/30) Accurately ripped
19 | (30/30) Accurately ripped
20 | (30/30) Accurately ripped
21 | (30/30) Accurately ripped
22 | (30/30) Accurately ripped
23 | (30/30) Accurately ripped


==== Log checksum D5AB036453B9995284ED2806612D695589EA5A9E43FC5565249E94917DE0AD07 ====

Andrew Lawrence-King, The Harp Consort - Spanish Gypsies: Celtic and Spanish music in Shakespeare's England (2013)

Thanks to the original releaser