Subcategories

Andy M. Stewart, Phil Cunningham, Manus Lunny - Fire In The Glen (1985)

Posted By: Andi_Deris
Andy M. Stewart, Phil Cunningham, Manus Lunny - Fire In The Glen (1985)

Andy M. Stewart, Phil Cunningham, Manus Lunny - Fire In The Glen (1985)
EAC Rip | FLAC: Image+Cue+Log | MP3 CBR 320 kbps | Scans
223 Mb | 95 Mb | 39:11
Shanachie | SH 79062
Scottish Folk, Singer-Songwriter

Classic Scottish Folk music CD. In the mid 80s, Stewart teamed up with Irish band Capercaillie’s Manus Lunny, an esteemed multi-instrumentalist, vocalist, and composer. The duo toured extensively and recorded Fire in the Glen (1985) (featuring Silly Wizard member Phil Cunningham). If you like traditional style Scottish/Celtic music then you need this CD.



Track Listing

01. Treorachadh / I Mourn For The Highlands (04:36)
02. The Gold Claddagh Ring (03:32)
03. Fire In The Glen (04:08)
04. The Spare Shillin' / The Viszla's Rambles / The Lying Dew (03:39)
05. Níl Sí I N Grá (She's Not In Love) (04:08)
06. Watkins' Wee Red Whiskers / All Hail To Mevagissey / The Girls At Martinfield (04:14)
07. Young Jimmy In Flanders (04:59)
08. Brighidin Ban Mo Store (03:58)
09. Ferry Me Over (05:57)

Exact Audio Copy V0.99 prebeta 3 from 28. July 2007

EAC extraction logfile from 14. September 2008, 16:21

Andy M. Stewart-Phil Cunningham-Manus Lunny / Fire In the Glen

Used drive : PLEXTOR CD-R PREMIUM2 Adapter: 1 ID: 0

Read mode : Secure
Utilize accurate stream : Yes
Defeat audio cache : Yes
Make use of C2 pointers : No

Read offset correction : 30
Overread into Lead-In and Lead-Out : No
Fill up missing offset samples with silence : Yes
Delete leading and trailing silent blocks : No
Null samples used in CRC calculations : Yes
Used interface : Native Win32 interface for Win NT & 2000

Used output format : Internal WAV Routines
Sample format : 44.100 Hz; 16 Bit; Stereo


TOC of the extracted CD

Track | Start | Length | Start sector | End sector
––––––––––––––––––––––––––––-
1 | 0:00.00 | 4:35.38 | 0 | 20662
2 | 4:35.38 | 3:31.70 | 20663 | 36557
3 | 8:07.33 | 4:08.10 | 36558 | 55167
4 | 12:15.43 | 3:38.52 | 55168 | 71569
5 | 15:54.20 | 4:07.70 | 71570 | 90164
6 | 20:02.15 | 4:13.60 | 90165 | 109199
7 | 24:16.00 | 4:59.03 | 109200 | 131627
8 | 29:15.03 | 3:58.10 | 131628 | 149487
9 | 33:13.13 | 5:56.46 | 149488 | 176233


Range status and errors

Selected range

Filename E:\_TEMP\Fire In the Glen.wav

Peak level 93.7 %
Range quality 100.0 %
Test CRC 25D30C99
Copy CRC 25D30C99
Copy OK

No errors occurred


AccurateRip summary

Track 1 not present in database
Track 2 not present in database
Track 3 not present in database
Track 4 not present in database
Track 5 not present in database
Track 6 not present in database
Track 7 not present in database
Track 8 not present in database
Track 9 not present in database

None of the tracks are present in the AccurateRip database

End of status report


Many thanks to the original uploader: Gunman





Password: pass