Subcategories

Angra - Omni (2018) [Japan SHM-CD] CD + DVD

Posted By: Andi_Deris
Angra - Omni (2018) [Japan SHM-CD] CD + DVD

Angra - ØMNI (2018) [Japan SHM-CD] CD + DVD
EAC Rip | FLAC: Image+Cue+Log | MP3 CBR 320 kbps | Scans
492 Mb | 156 Mb | 47 Mb | Time: 01:07:14
DVD5 | Video: NTSC 16:9 (720x480) | Audio: LinearPCM, 2 ch | 1.8 Gb | Time: 26:54
Victor Entertainment Corp. | VIZP-156
Progressive Power Metal

Brazilian veterans Angra have been cranking out quality power metal for more than twenty-five years. 2018 sees them releasing their ninth studio album, ØMNI. This one is a concept album, ambitious in scope as it seeks to tie together three previous albums (Holy Land, Rebirth and Temple of Shadows) through the idea that in the future AI has changed human perception. Don’t be frightened, though: this ambition doesn’t make ØMNI unwieldy at all – at least, no more so than the band’s music normally does.

Angra - Omni (2018) [Japan SHM-CD] CD + DVD




CD

01. Light Of Transcendence (04:37)
02. Travelers Of Time (04:28)
03. Black Widow's Web (05:49)
04. Insania (05:32)
05. The Bottom Of My Soul (04:20)
06. War Horns (04:43)
07. Caveman (05:53)
08. Masic Mirror (06:58)
09. Always More (04:44)
10. ØMNI - Silence Inside (08:31)
11. ØMNI - Infinite Nothing (05:13)
12. Z.I.T.O. (2018 Version) (Japan Bonus Track) (06:25)

DVD

"The Videos"

01. Travelers of Time
02. War Horns
03. Storm of Emotions
04. Final Light
05. Black Hearted Soul
06. Silent Call

Angra - Omni (2018) [Japan SHM-CD] CD + DVD
Angra - Omni (2018) [Japan SHM-CD] CD + DVD

Angra - Omni (2018) [Japan SHM-CD] CD + DVD
Angra - Omni (2018) [Japan SHM-CD] CD + DVD
Angra - Omni (2018) [Japan SHM-CD] CD + DVD
Angra - Omni (2018) [Japan SHM-CD] CD + DVD


Produced by Jens Bogren

The Band

Fabio Lione - Vocals
• Rafael Bittencourt - Guitars, Vocals
• Marcelo Barbosa - Guitars
• Felipe Andreoli - Bass
• Bruno Valverde - Drums

Exact Audio Copy V1.3 from 2. September 2016

EAC extraction logfile from 28. February 2018, 9:42

Angra / Omni (Japan)

Used drive : ATAPI iHAS122 W Adapter: 2 ID: 0

Read mode : Secure
Utilize accurate stream : Yes
Defeat audio cache : Yes
Make use of C2 pointers : No

Read offset correction : 48
Overread into Lead-In and Lead-Out : No
Fill up missing offset samples with silence : Yes
Delete leading and trailing silent blocks : No
Null samples used in CRC calculations : Yes
Used interface : Installed external ASPI interface

Used output format : User Defined Encoder
Selected bitrate : 1024 kBit/s
Quality : High
Add ID3 tag : No
Command line compressor : C:\Program Files\FLAC\flac.exe
Additional command line options : -V -8 -T "Date=%year%" -T "Genre=%genre%" -T"COMMENT=Ripped by Ilijan" -8 -V %source%


TOC of the extracted CD

Track | Start | Length | Start sector | End sector
––––––––––––––––––––––––––––-
1 | 0:00.00 | 4:36.66 | 0 | 20765
2 | 4:36.66 | 4:27.36 | 20766 | 40826
3 | 9:04.27 | 5:49.14 | 40827 | 67015
4 | 14:53.41 | 5:31.69 | 67016 | 91909
5 | 20:25.35 | 4:19.31 | 91910 | 111365
6 | 24:44.66 | 4:43.16 | 111366 | 132606
7 | 29:28.07 | 5:53.31 | 132607 | 159112
8 | 35:21.38 | 6:58.18 | 159113 | 190480
9 | 42:19.56 | 4:43.54 | 190481 | 211759
10 | 47:03.35 | 8:31.02 | 211760 | 250086
11 | 55:34.37 | 5:13.09 | 250087 | 273570
12 | 60:47.46 | 6:25.29 | 273571 | 302474


Range status and errors

Selected range

Filename D:\Angra - Omni (Japan).wav

Peak level 100.0 %
Extraction speed 4.4 X
Range quality 100.0 %
Test CRC B7DE494F
Copy CRC B7DE494F
Copy OK

No errors occurred


AccurateRip summary

Track 1 not present in database
Track 2 not present in database
Track 3 not present in database
Track 4 not present in database
Track 5 not present in database
Track 6 not present in database
Track 7 not present in database
Track 8 not present in database
Track 9 not present in database
Track 10 not present in database
Track 11 not present in database
Track 12 not present in database

None of the tracks are present in the AccurateRip database

End of status report

–– CUETools DB Plugin V2.1.6

[CTDB TOCID: RP_zf54RF3QlqKca6mQEFbNTtwg-] found
Submit result: RP_zf54RF3QlqKca6mQEFbNTtwg- has been confirmed
Track | CTDB Status
1 | (19/19) Accurately ripped
2 | (18/19) Accurately ripped
3 | (19/19) Accurately ripped
4 | (19/19) Accurately ripped
5 | (19/19) Accurately ripped
6 | (19/19) Accurately ripped
7 | (19/19) Accurately ripped
8 | (19/19) Accurately ripped
9 | (19/19) Accurately ripped
10 | (19/19) Accurately ripped
11 | (19/19) Accurately ripped
12 | (19/19) Accurately ripped


==== Log checksum 11C5DD5364F15E3995A2E048F307BCE2CABE83DDD8EBD5D24B558296FC02A0BD ====

Size: 1.81 Gb ( 1 894 274,00 KBytes ) - DVD-5
Enabled regions: 1, 2, 3, 4, 5, 6, 7, 8

VTS_01 :
Play Length: 00:26:54
Video: NTSC 16:9 (720x480) VBR, Auto Letterboxed
Audio:
English (LinearPCM, 2 ch)

* Menus Information *

VIDEO_TS Menu
Video:
NTSC 4:3 (720x480) VBR
Auto Pan&Scan, Auto Letterboxed
Japanese Language Unit :
Title Menu

VTS_01 Menu
Video:
NTSC 16:9 (720x480) VBR
Auto Letterboxed
Japanese Language Unit :
Root Menu
Chapter (PTT) Menu


Many thanks to the original uploader: Ilijan

SEE also:
Almah 2016 E.V.O [Japanese Ed.]

Edu Falaschi 2018 The Glory Of The Sacred Truth [Japanese Ed.]



Password: pass